  0
SECTION
  2
HEADER
  9
$ACADVER
  1
AC1004
  9
$ANGBASE
 50
0.000000
  9
$ANGDIR
 70
     0
  9
$ATTDIA
 70
     0
  9
$ATTMODE
 70
     1
  9
$ATTREQ
 70
     1
  9
$AUNITS
 70
     0
  9
$AUPREC
 70
     0
  9
$AXISMODE
 70
     0
  9
$AXISUNIT
 10
0.000000
 20
0.000000
  9
$BLIPMODE
 70
     1
  9
$CECOLOR
 62
   256
  9
$CELTYPE
  6
BYLAYER
  9
$CHAMFERA
 40
0.000000
  9
$CHAMFERB
 40
0.000000
  9
$CLAYER
  8
0
  9
$COORDS
 70
     0
  9
$DIMALT
 70
     0
  9
$DIMALTD
 70
     2
  9
$DIMALTF
 40
25.400000
  9
$DIMAPOST
  1

  9
$DIMASO
 70
     1
  9
$DIMASZ
 40
0.153877
  9
$DIMBLK
  1

  9
$DIMBLK1
  1

  9
$DIMBLK2
  1

  9
$DIMCEN
 40
9.000000E-02
  9
$DIMDLE
 40
0.000000
  9
$DIMDLI
 40
0.380000
  9
$DIMEXE
 40
0.150000
  9
$DIMEXO
 40
0.100000
  9
$DIMLFAC
 40
1.000000
  9
$DIMLIM
 70
     0
  9
$DIMPOST
  1

  9
$DIMRND
 40
0.000000
  9
$DIMSCALE
 40
1.000000
  9
$DIMSE1
 70
     0
  9
$DIMSE2
 70
     0
  9
$DIMSHO
 70
     0
  9
$DIMTAD
 70
     0
  9
$DIMTIH
 70
     0
  9
$DIMTM
 40
0.000000
  9
$DIMTOH
 70
     1
  9
$DIMTOL
 70
     0
  9
$DIMTP
 40
0.000000
  9
$DIMTSZ
 40
0.000000
  9
$DIMTXT
 40
0.125000
  9
$DIMZIN
 70
     0
  9
$DRAGMODE
 70
     1
  9
$DWGCODEPAGE
  3
ansi_1252
  9
$ELEVATION
 40
0.000000
  9
$EXTMAX
 10
21.640003
 20
11.482647
 30
0.000000
  9
$EXTMIN
 10
-7.532501E-02
 20
-0.125000
 30
0.000000
  9
$FASTZOOM
 70
     1
  9
$FILLETRAD
 40
6.250000E-02
  9
$FILLMODE
 70
     1
  9
$GRIDMODE
 70
     0
  9
$GRIDUNIT
 10
0.000000
 20
0.000000
  9
$INSBASE
 10
0.000000
 20
0.000000
 30
0.000000
  9
$LIMCHECK
 70
     0
  9
$LIMMAX
 10
21.640003
 20
11.482647
  9
$LIMMIN
 10
-7.532501E-02
 20
-0.125000
  9
$LTSCALE
 40
1.000000
  9
$LUNITS
 70
     2
  9
$LUPREC
 70
     3
  9
$MEASUREMENT
 70
     0
  9
$MENU
  1
ACAD
  9
$MIRRTEXT
 70
     0
  9
$ORTHOMODE
 70
     0
  9
$OSMODE
 70
     0
  9
$PDMODE
 70
     0
  9
$PDSIZE
 40
0.000000
  9
$PLINEWID
 40
0.000000
  9
$PROXYGRAPHICS
 70
     0
  9
$QTEXTMODE
 70
     0
  9
$REGENMODE
 70
     1
  9
$SKETCHINC
 40
0.100000
  9
$SKPOLY
 70
     0
  9
$SNAPANG
 50
0.000000
  9
$SNAPBASE
 10
0.000000
 20
0.000000
  9
$SNAPISOPAIR
 70
     0
  9
$SNAPMODE
 70
     0
  9
$SNAPSTYLE
 70
     0
  9
$SNAPUNIT
 10
1.000000
 20
1.000000
  9
$SPLFRAME
 70
     0
  9
$SPLINESEGS
 70
     8
  9
$TDCREATE
 40
2452711.395278
  9
$TDINDWG
 40
0.000000
  9
$TDUPDATE
 40
2452711.395278
  9
$TDUSRTIMER
 40
0.000000
  9
$TEXTSIZE
 40
0.125000
  9
$TEXTSTYLE
  7
STANDARD
  9
$THICKNESS
 40
0.000000
  9
$TRACEWID
 40
5.000000E-02
  9
$USERI1
 70
     0
  9
$USERI2
 70
     0
  9
$USERI3
 70
     0
  9
$USERI4
 70
     0
  9
$USERI5
 70
     0
  9
$USERR1
 40
0.000000
  9
$USERR2
 40
0.000000
  9
$USERR3
 40
0.000000
  9
$USERR4
 40
0.000000
  9
$USERR5
 40
0.000000
  9
$USRTIMER
 70
     1
  9
$VIEWCTR
 10
10.782339
 20
5.678823
  9
$VIEWDIR
 10
0.000000
 20
0.000000
 30
1.000000
  9
$VIEWSIZE
 40
11.607647
  0
ENDSEC
  0
SECTION
  2
TABLES
  0
TABLE
  2
LTYPE
 70
     3
  0
LTYPE
  2
SOLID
  3
Solid
 70
    64
 72
    65
 73
     0
 40
0.000000
  0
LTYPE
  2
CONSTRUCTION
  3
Construction
 70
    64
 72
    65
 73
     2
 40
4.000000E-02
 49
1.000000E-02
 49
-3.000000E-02
  0
LTYPE
  2
GAP
  3
Gap
 70
    64
 72
    65
 73
     3
 40
100.060000
 49
0.000000
 49
-6.000000E-02
 49
100.000000
  0
ENDTAB
  0
TABLE
  2
LAYER
 70
     1
  0
LAYER
  2
Layer0$C$L0
 70
     0
  6
SOLID
 62
     2
  0
ENDTAB
  0
TABLE
  2
STYLE
 70
     1
  0
STYLE
  2
STANDARD
  3
txt
  4

 40
0.000000
 41
1.000000
 42
0.125000
 50
0.000000
 70
     0
 71
     0
  0
ENDTAB
  0
TABLE
  2
DIMSTYLE
 70
     1
  0
DIMSTYLE
  2
DIM0
 70
     0
  3

  4

  5

  6

  7

 40
1.000000
 41
0.153877
 42
0.100000
 43
0.380000
 44
0.150000
 45
0.000000
 46
0.000000
 47
0.000000
 48
0.000000
140
0.125000
141
9.000000E-02
142
0.000000
143
1.000000
144
1.000000
145
0.000000
146
1.000000
147
6.250000E-02
 71
     0
 72
     0
 73
     1
 74
     1
 75
     0
 76
     0
 77
     0
 78
     0
170
     0
171
     0
172
     0
173
     0
174
     0
175
     0
176
     0
177
     0
178
     0
270
     2
271
     2
272
     2
273
     2
274
     0
275
     1
280
     0
281
     0
282
     0
283
     1
284
     0
285
     0
286
     0
287
     3
288
     0
  0
ENDTAB
  0
ENDSEC
  0
SECTION
  2
BLOCKS
  0
BLOCK
  8
Layer0$C$L0
  2
*D0
 70
     1
 10
0.000000
 20
0.000000
  0
SOLID
  8
Layer0$C$L0
 62
     0
 10
5.550946
 20
3.043465
 11
5.550946
 21
3.104333
 12
5.397944
 22
3.073899
 13
5.397944
 23
3.073899
  0
LINE
  8
Layer0$C$L0
 10
5.397944
 20
3.073899
 11
5.972693
 21
3.073899
  0
SOLID
  8
Layer0$C$L0
 62
     0
 10
7.018161
 20
3.104333
 11
7.018161
 21
3.043465
 12
7.171163
 22
3.073899
 13
7.171163
 23
3.073899
  0
LINE
  8
Layer0$C$L0
 10
7.171163
 20
3.073899
 11
6.564269
 21
3.073899
  0
LINE
  8
Layer0$C$L0
  6
GAP
 10
5.397944
 20
3.249380
 11
5.397944
 21
2.923899
  0
LINE
  8
Layer0$C$L0
  6
GAP
 10
7.171163
 20
3.249173
 11
7.171163
 21
2.923899
  0
TEXT
  8
Layer0$C$L0
 10
6.035193
 20
3.011399
 40
0.125000
  1
1.77
 72
     5
 11
6.501768
 21
3.011399
  0
ENDBLK
  8
Layer0$C$L0
  0
BLOCK
  8
Layer0$C$L0
  2
*D1
 70
     1
 10
0.000000
 20
0.000000
  0
SOLID
  8
Layer0$C$L0
 62
     0
 10
4.879521
 20
3.502223
 11
4.818653
 21
3.502223
 12
4.849087
 22
3.349221
 13
4.849087
 23
3.349221
  0
LINE
  8
Layer0$C$L0
 10
4.849087
 20
3.349221
 11
4.849087
 21
3.814263
  0
SOLID
  8
Layer0$C$L0
 62
     0
 10
4.818653
 20
4.195218
 11
4.879521
 21
4.195218
 12
4.849087
 22
4.348221
 13
4.849087
 23
4.348221
  0
LINE
  8
Layer0$C$L0
 10
4.849087
 20
4.348221
 11
4.849087
 21
4.064263
  0
LINE
  8
Layer0$C$L0
  6
GAP
 10
5.778646
 20
4.348221
 11
4.699088
 21
4.348221
  0
TEXT
  8
Layer0$C$L0
 10
4.678299
 20
3.876763
 40
0.125000
  1
.98
 72
     5
 11
5.019875
 21
3.876763
  0
ENDBLK
  8
Layer0$C$L0
  0
BLOCK
  8
Layer0$C$L0
  2
*D2
 70
     1
 10
0.000000
 20
0.000000
  0
SOLID
  8
Layer0$C$L0
 62
     0
 10
4.339895
 20
5.204746
 11
4.400763
 21
5.204746
 12
4.370329
 22
5.357749
 13
4.370329
 23
5.357749
  0
LINE
  8
Layer0$C$L0
 10
4.370329
 20
5.357749
 11
4.370329
 21
4.606312
  0
SOLID
  8
Layer0$C$L0
 62
     0
 10
4.400763
 20
3.502223
 11
4.339895
 21
3.502223
 12
4.370329
 22
3.349221
 13
4.370329
 23
3.349221
  0
LINE
  8
Layer0$C$L0
 10
4.370329
 20
3.349221
 11
4.370329
 21
4.356312
  0
LINE
  8
Layer0$C$L0
  6
GAP
 10
5.366478
 20
5.357749
 11
4.220330
 21
5.357749
  0
LINE
  8
Layer0$C$L0
  6
GAP
 10
5.304974
 20
3.349221
 11
4.220330
 21
3.349221
  0
TEXT
  8
Layer0$C$L0
 10
4.137042
 20
4.418812
 40
0.125000
  1
2.01
 72
     5
 11
4.603617
 21
4.418812
  0
ENDBLK
  8
Layer0$C$L0
  0
BLOCK
  8
Layer0$C$L0
  2
*D3
 70
     1
 10
0.000000
 20
0.000000
  0
SOLID
  8
Layer0$C$L0
 62
     0
 10
6.031649
 20
5.977738
 11
6.031649
 21
6.038606
 12
5.878646
 22
6.008172
 13
5.878646
 23
6.008172
  0
SOLID
  8
Layer0$C$L0
 62
     0
 10
6.545644
 20
6.038606
 11
6.545644
 21
5.977738
 12
6.698646
 22
6.008172
 13
6.698646
 23
6.008172
  0
LINE
  8
Layer0$C$L0
 10
5.878646
 20
6.008172
 11
6.698646
 21
6.008172
  0
LINE
  8
Layer0$C$L0
 10
6.698646
 20
6.008172
 11
6.841021
 21
6.008172
  0
LINE
  8
Layer0$C$L0
  6
GAP
 10
5.878646
 20
6.700847
 11
5.878646
 21
5.858171
  0
LINE
  8
Layer0$C$L0
  6
GAP
 10
6.698646
 20
6.700847
 11
6.698646
 21
5.858171
  0
TEXT
  8
Layer0$C$L0
 10
6.903521
 20
5.945672
 40
0.125000
  1
.82
 72
     5
 11
7.245096
 21
5.945672
  0
ENDBLK
  8
Layer0$C$L0
  0
BLOCK
  8
Layer0$C$L0
  2
*D4
 70
     1
 10
0.000000
 20
0.000000
  0
SOLID
  8
Layer0$C$L0
 62
     0
 10
4.813664
 20
6.571218
 11
4.874533
 21
6.571218
 12
4.844099
 22
6.724221
 13
4.844099
 23
6.724221
  0
LINE
  8
Layer0$C$L0
 10
4.844099
 20
6.724221
 11
4.844099
 21
6.047288
  0
SOLID
  8
Layer0$C$L0
 62
     0
 10
4.874533
 20
7.190223
 11
4.813664
 21
7.190223
 12
4.844099
 22
7.037220
 13
4.844099
 23
7.037220
  0
LINE
  8
Layer0$C$L0
 10
4.844099
 20
7.037220
 11
4.844099
 21
7.437220
  0
LINE
  8
Layer0$C$L0
  6
GAP
 10
5.594015
 20
7.037220
 11
4.694099
 21
7.037220
  0
TEXT
  8
Layer0$C$L0
 10
4.673312
 20
5.859788
 40
0.125000
  1
.31
 72
     5
 11
5.014887
 21
5.859788
  0
ENDBLK
  8
Layer0$C$L0
  0
BLOCK
  8
Layer0$C$L0
  2
*D5
 70
     1
 10
0.000000
 20
0.000000
  0
SOLID
  8
Layer0$C$L0
 62
     0
 10
5.553745
 20
6.333360
 11
5.553745
 21
6.394228
 12
5.400742
 22
6.363794
 13
5.400742
 23
6.363794
  0
SOLID
  8
Layer0$C$L0
 62
     0
 10
5.725644
 20
6.394228
 11
5.725644
 21
6.333360
 12
5.878646
 22
6.363794
 13
5.878646
 23
6.363794
  0
LINE
  8
Layer0$C$L0
 10
5.400742
 20
6.363794
 11
5.878646
 21
6.363794
  0
LINE
  8
Layer0$C$L0
 10
5.878646
 20
6.363794
 11
6.021021
 21
6.363794
  0
LINE
  8
Layer0$C$L0
  6
GAP
 10
5.400742
 20
6.600381
 11
5.400742
 21
6.213794
  0
TEXT
  8
Layer0$C$L0
  6
GAP
 10
6.083521
 20
6.301294
 40
0.125000
  1
.48
 72
     5
 11
6.425097
 21
6.301294
  0
ENDBLK
  8
Layer0$C$L0
  0
BLOCK
  8
Layer0$C$L0
  2
*D6
 70
     1
 10
0.000000
 20
0.000000
  0
SOLID
  8
Layer0$C$L0
 62
     0
 10
4.874534
 20
7.190223
 11
4.813665
 21
7.190223
 12
4.844100
 22
7.037220
 13
4.844100
 23
7.037220
  0
LINE
  8
Layer0$C$L0
 10
4.844100
 20
7.037220
 11
4.844100
 21
8.015244
  0
SOLID
  8
Layer0$C$L0
 62
     0
 10
4.813665
 20
9.134219
 11
4.874534
 21
9.134219
 12
4.844100
 22
9.287222
 13
4.844100
 23
9.287222
  0
LINE
  8
Layer0$C$L0
 10
4.844100
 20
9.287222
 11
4.844100
 21
8.265244
  0
LINE
  8
Layer0$C$L0
  6
GAP
 10
5.582289
 20
9.287220
 11
4.694100
 21
9.287222
  0
TEXT
  8
Layer0$C$L0
 10
4.610812
 20
8.077744
 40
0.125000
  1
2.25
 72
     5
 11
5.077387
 21
8.077744
  0
ENDBLK
  8
Layer0$C$L0
  0
BLOCK
  8
Layer0$C$L0
  2
*D7
 70
     1
 10
0.000000
 20
0.000000
  0
SOLID
  8
Layer0$C$L0
 62
     0
 10
4.380486
 20
6.877223
 11
4.319618
 21
6.877223
 12
4.350052
 22
6.724221
 13
4.350052
 23
6.724221
  0
LINE
  8
Layer0$C$L0
 10
4.350052
 20
6.724221
 11
4.350052
 21
8.530313
  0
SOLID
  8
Layer0$C$L0
 62
     0
 10
4.319618
 20
9.446218
 11
4.380486
 21
9.446218
 12
4.350052
 22
9.599220
 13
4.350052
 23
9.599220
  0
LINE
  8
Layer0$C$L0
 10
4.350052
 20
9.599220
 11
4.350052
 21
8.780313
  0
LINE
  8
Layer0$C$L0
  6
GAP
 10
5.300742
 20
6.724221
 11
4.200053
 21
6.724221
  0
LINE
  8
Layer0$C$L0
  6
GAP
 10
5.300742
 20
9.599220
 11
4.200053
 21
9.599220
  0
TEXT
  8
Layer0$C$L0
 10
4.116765
 20
8.592813
 40
0.125000
  1
2.87
 72
     5
 11
4.583340
 21
8.592813
  0
ENDBLK
  8
Layer0$C$L0
  0
BLOCK
  8
Layer0$C$L0
  2
*X0
 70
     1
 10
0.000000
 20
0.000000
  0
LINE
  8
Layer0$C$L0
 10
-4.465036
 20
1.101342
 11
-4.456174
 21
1.110204
  0
LINE
  8
Layer0$C$L0
 10
-4.445858
 20
1.141734
 11
-4.496564
 21
1.091026
  0
LINE
  8
Layer0$C$L0
 10
-4.506448
 20
1.102355
 11
-4.517778
 21
1.091026
  0
LINE
  8
Layer0$C$L0
 10
-4.445858
 20
1.162946
 11
-4.487188
 21
1.121617
  0
LINE
  8
Layer0$C$L0
 10
-4.529142
 20
1.100875
 11
-4.538991
 21
1.091026
  0
LINE
  8
Layer0$C$L0
 10
-4.445858
 20
1.184160
 11
-4.485708
 21
1.144310
  0
LINE
  8
Layer0$C$L0
 10
-4.550355
 20
1.100875
 11
-4.560205
 21
1.091026
  0
LINE
  8
Layer0$C$L0
 10
-4.460456
 20
1.190774
 11
-4.486736
 21
1.164495
  0
LINE
  8
Layer0$C$L0
 10
-4.568008
 20
1.104434
 11
-4.581106
 21
1.091339
  0
LINE
  8
Layer0$C$L0
 10
-4.481668
 20
1.190774
 11
-4.496688
 21
1.175756
  0
LINE
  8
Layer0$C$L0
 10
-4.445835
 20
1.226610
 11
-4.456441
 21
1.216003
  0
LINE
  8
Layer0$C$L0
 10
-4.578947
 20
1.114710
 11
-4.596979
 21
1.096679
  0
LINE
  8
Layer0$C$L0
 10
-4.502882
 20
1.190774
 11
-4.515695
 21
1.177963
  0
LINE
  8
Layer0$C$L0
 10
-4.446043
 20
1.247614
 11
-4.477655
 21
1.216003
  0
LINE
  8
Layer0$C$L0
 10
-4.583850
 20
1.131019
 11
-4.609207
 21
1.105664
  0
LINE
  8
Layer0$C$L0
 10
-4.524095
 20
1.190774
 11
-4.530670
 21
1.184201
  0
LINE
  8
Layer0$C$L0
 10
-4.451227
 20
1.263644
 11
-4.485633
 21
1.229237
  0
LINE
  8
Layer0$C$L0
 10
-4.583850
 20
1.152233
 11
-4.618082
 21
1.118000
  0
LINE
  8
Layer0$C$L0
 10
-4.460109
 20
1.275975
 11
-4.485633
 21
1.250450
  0
LINE
  8
Layer0$C$L0
 10
-4.583850
 20
1.173445
 11
-4.623136
 21
1.134160
  0
LINE
  8
Layer0$C$L0
 10
-4.472221
 20
1.285075
 11
-4.490362
 21
1.266935
  0
LINE
  8
Layer0$C$L0
 10
-4.583850
 20
1.194659
 11
-4.623600
 21
1.154909
  0
LINE
  8
Layer0$C$L0
 10
-4.488332
 20
1.290177
 11
-4.501300
 21
1.277210
  0
LINE
  8
Layer0$C$L0
 10
-4.583850
 20
1.215872
 11
-4.623600
 21
1.176123
  0
LINE
  8
Layer0$C$L0
 10
-4.508995
 20
1.290728
 11
-4.518692
 21
1.281031
  0
LINE
  8
Layer0$C$L0
 10
-4.583850
 20
1.237085
 11
-4.623600
 21
1.197337
  0
LINE
  8
Layer0$C$L0
 10
-4.530208
 20
1.290728
 11
-4.539905
 21
1.281031
  0
LINE
  8
Layer0$C$L0
 10
-4.582122
 20
1.260027
 11
-4.623600
 21
1.218549
  0
LINE
  8
Layer0$C$L0
 10
-4.551422
 20
1.290728
 11
-4.562860
 21
1.279289
  0
LINE
  8
Layer0$C$L0
 10
-4.572635
 20
1.290728
 11
-4.623600
 21
1.239763
  0
LINE
  8
Layer0$C$L0
 10
-4.604272
 20
1.280303
 11
-4.613136
 21
1.271441
  0
ENDBLK
  8
Layer0$C$L0
  0
BLOCK
  8
Layer0$C$L0
  2
*X1
 70
     1
 10
0.000000
 20
0.000000
  0
LINE
  8
Layer0$C$L0
 10
-4.273023
 20
1.091120
 11
-4.227951
 21
1.136193
  0
LINE
  8
Layer0$C$L0
 10
-4.227609
 20
1.157749
 11
-4.294580
 21
1.090778
  0
LINE
  8
Layer0$C$L0
 10
-4.305591
 20
1.100981
 11
-4.315794
 21
1.090778
  0
LINE
  8
Layer0$C$L0
 10
-4.227609
 20
1.178962
 11
-4.267810
 21
1.138759
  0
LINE
  8
Layer0$C$L0
 10
-4.326803
 20
1.100981
 11
-4.337007
 21
1.090778
  0
LINE
  8
Layer0$C$L0
 10
-4.227609
 20
1.200175
 11
-4.267810
 21
1.159973
  0
LINE
  8
Layer0$C$L0
 10
-4.346269
 20
1.102729
 11
-4.357912
 21
1.091087
  0
LINE
  8
Layer0$C$L0
 10
-4.227609
 20
1.221388
 11
-4.267810
 21
1.181185
  0
LINE
  8
Layer0$C$L0
 10
-4.358665
 20
1.111546
 11
-4.375394
 21
1.094818
  0
LINE
  8
Layer0$C$L0
 10
-4.227746
 20
1.242463
 11
-4.267810
 21
1.202399
  0
LINE
  8
Layer0$C$L0
 10
-4.365289
 20
1.126134
 11
-4.388381
 21
1.103042
  0
LINE
  8
Layer0$C$L0
 10
-4.231533
 20
1.259890
 11
-4.267810
 21
1.223612
  0
LINE
  8
Layer0$C$L0
 10
-4.365602
 20
1.147035
 11
-4.398153
 21
1.114484
  0
LINE
  8
Layer0$C$L0
 10
-4.239507
 20
1.273129
 11
-4.267810
 21
1.244825
  0
LINE
  8
Layer0$C$L0
 10
-4.365602
 20
1.168248
 11
-4.404340
 21
1.129511
  0
LINE
  8
Layer0$C$L0
 10
-4.250837
 20
1.283014
 11
-4.270483
 21
1.263367
  0
LINE
  8
Layer0$C$L0
 10
-4.365602
 20
1.189461
 11
-4.405706
 21
1.149359
  0
LINE
  8
Layer0$C$L0
 10
-4.265731
 20
1.289332
 11
-4.279994
 21
1.275069
  0
LINE
  8
Layer0$C$L0
 10
-4.365602
 20
1.210674
 11
-4.405706
 21
1.170572
  0
LINE
  8
Layer0$C$L0
 10
-4.285442
 20
1.290834
 11
-4.295511
 21
1.280766
  0
LINE
  8
Layer0$C$L0
 10
-4.365602
 20
1.231887
 11
-4.405706
 21
1.191785
  0
LINE
  8
Layer0$C$L0
 10
-4.306657
 20
1.290834
 11
-4.316707
 21
1.280784
  0
LINE
  8
Layer0$C$L0
 10
-4.365797
 20
1.252907
 11
-4.405706
 21
1.212999
  0
LINE
  8
Layer0$C$L0
 10
-4.327869
 20
1.290834
 11
-4.337739
 21
1.280964
  0
LINE
  8
Layer0$C$L0
 10
-4.349082
 20
1.290834
 11
-4.405706
 21
1.234211
  0
LINE
  8
Layer0$C$L0
 10
-4.373939
 20
1.287191
 11
-4.402023
 21
1.259108
  0
ENDBLK
  8
Layer0$C$L0
  0
BLOCK
  8
Layer0$C$L0
  2
*X2
 70
     1
 10
0.000000
 20
0.000000
  0
LINE
  8
Layer0$C$L0
 10
-4.048709
 20
1.091990
 11
-4.010820
 21
1.129878
  0
LINE
  8
Layer0$C$L0
 10
-4.009714
 20
1.152197
 11
-4.071027
 21
1.090884
  0
LINE
  8
Layer0$C$L0
 10
-4.082391
 20
1.100733
 11
-4.092241
 21
1.090884
  0
LINE
  8
Layer0$C$L0
 10
-4.009714
 20
1.173411
 11
-4.049564
 21
1.133561
  0
LINE
  8
Layer0$C$L0
 10
-4.103605
 20
1.100733
 11
-4.113454
 21
1.090884
  0
LINE
  8
Layer0$C$L0
 10
-4.009714
 20
1.194624
 11
-4.049564
 21
1.154775
  0
LINE
  8
Layer0$C$L0
 10
-4.124101
 20
1.101449
 11
-4.134668
 21
1.090884
  0
LINE
  8
Layer0$C$L0
 10
-4.009714
 20
1.215837
 11
-4.049564
 21
1.175988
  0
LINE
  8
Layer0$C$L0
 10
-4.137985
 20
1.108778
 11
-4.153299
 21
1.093465
  0
LINE
  8
Layer0$C$L0
 10
-4.009714
 20
1.237050
 11
-4.049564
 21
1.197201
  0
LINE
  8
Layer0$C$L0
 10
-4.146305
 20
1.121672
 11
-4.167375
 21
1.100603
  0
LINE
  8
Layer0$C$L0
 10
-4.009714
 20
1.258264
 11
-4.049564
 21
1.218415
  0
LINE
  8
Layer0$C$L0
 10
-4.147707
 20
1.141484
 11
-4.177986
 21
1.111205
  0
LINE
  8
Layer0$C$L0
 10
-4.009714
 20
1.279477
 11
-4.049564
 21
1.239627
  0
LINE
  8
Layer0$C$L0
 10
-4.147707
 20
1.162696
 11
-4.185119
 21
1.125285
  0
LINE
  8
Layer0$C$L0
 10
-4.019567
 20
1.290838
 11
-4.049564
 21
1.260841
  0
LINE
  8
Layer0$C$L0
 10
-4.147707
 20
1.183910
 11
-4.187810
 21
1.143808
  0
LINE
  8
Layer0$C$L0
 10
-4.040781
 20
1.290838
 11
-4.049564
 21
1.282054
  0
LINE
  8
Layer0$C$L0
 10
-4.147707
 20
1.205123
 11
-4.187810
 21
1.165020
  0
LINE
  8
Layer0$C$L0
 10
-4.147707
 20
1.226336
 11
-4.187810
 21
1.186234
  0
LINE
  8
Layer0$C$L0
 10
-4.147707
 20
1.247549
 11
-4.187810
 21
1.207447
  0
LINE
  8
Layer0$C$L0
 10
-4.147707
 20
1.268763
 11
-4.187810
 21
1.228660
  0
LINE
  8
Layer0$C$L0
 10
-4.147707
 20
1.289976
 11
-4.187810
 21
1.249874
  0
LINE
  8
Layer0$C$L0
 10
-4.168117
 20
1.290780
 11
-4.187810
 21
1.271087
  0
ENDBLK
  8
Layer0$C$L0
  0
BLOCK
  8
Layer0$C$L0
  2
*X3
 70
     1
 10
0.000000
 20
0.000000
  0
LINE
  8
Layer0$C$L0
 10
-3.809394
 20
1.090887
 11
-3.799446
 21
1.100837
  0
LINE
  8
Layer0$C$L0
 10
-3.820657
 20
1.100837
 11
-3.830608
 21
1.090887
  0
LINE
  8
Layer0$C$L0
 10
-3.851821
 20
1.090887
 11
-3.841871
 21
1.100837
  0
LINE
  8
Layer0$C$L0
 10
-3.863084
 20
1.100837
 11
-3.873035
 21
1.090887
  0
LINE
  8
Layer0$C$L0
 10
-3.894247
 20
1.090887
 11
-3.884298
 21
1.100837
  0
LINE
  8
Layer0$C$L0
 10
-3.905511
 20
1.100837
 11
-3.915460
 21
1.090887
  0
LINE
  8
Layer0$C$L0
 10
-3.936674
 20
1.090887
 11
-3.926725
 21
1.100837
  0
LINE
  8
Layer0$C$L0
 10
-3.929611
 20
1.119165
 11
-3.957887
 21
1.090887
  0
LINE
  8
Layer0$C$L0
 10
-3.969812
 20
1.100175
 11
-3.929611
 21
1.140377
  0
LINE
  8
Layer0$C$L0
 10
-3.929611
 20
1.161591
 11
-3.969812
 21
1.121388
  0
LINE
  8
Layer0$C$L0
 10
-3.969812
 20
1.142601
 11
-3.929611
 21
1.182804
  0
LINE
  8
Layer0$C$L0
 10
-3.929611
 20
1.204017
 11
-3.969812
 21
1.163815
  0
LINE
  8
Layer0$C$L0
 10
-3.969812
 20
1.185027
 11
-3.929611
 21
1.225231
  0
LINE
  8
Layer0$C$L0
 10
-3.929611
 20
1.246444
 11
-3.969812
 21
1.206241
  0
LINE
  8
Layer0$C$L0
 10
-3.969812
 20
1.227455
 11
-3.929611
 21
1.267657
  0
LINE
  8
Layer0$C$L0
 10
-3.929611
 20
1.288870
 11
-3.969812
 21
1.248667
  0
LINE
  8
Layer0$C$L0
 10
-3.969812
 20
1.269881
 11
-3.948808
 21
1.290885
  0
ENDBLK
  8
Layer0$C$L0
  0
BLOCK
  8
Layer0$C$L0
  2
*X4
 70
     1
 10
0.000000
 20
0.000000
  0
LINE
  8
Layer0$C$L0
 10
-3.622785
 20
1.090821
 11
-3.573707
 21
1.139898
  0
LINE
  8
Layer0$C$L0
 10
-3.631633
 20
1.103185
 11
-3.644077
 21
1.090742
  0
LINE
  8
Layer0$C$L0
 10
-3.573572
 20
1.161248
 11
-3.616016
 21
1.118803
  0
LINE
  8
Layer0$C$L0
 10
-3.655088
 20
1.100944
 11
-3.665290
 21
1.090742
  0
LINE
  8
Layer0$C$L0
 10
-3.573572
 20
1.182461
 11
-3.613775
 21
1.142258
  0
LINE
  8
Layer0$C$L0
 10
-3.676301
 20
1.100944
 11
-3.686504
 21
1.090742
  0
LINE
  8
Layer0$C$L0
 10
-3.573572
 20
1.203674
 11
-3.613775
 21
1.163472
  0
LINE
  8
Layer0$C$L0
 10
-3.697515
 20
1.100944
 11
-3.707717
 21
1.090742
  0
LINE
  8
Layer0$C$L0
 10
-3.573572
 20
1.224887
 11
-3.613775
 21
1.184684
  0
LINE
  8
Layer0$C$L0
 10
-3.711715
 20
1.107956
 11
-3.728931
 21
1.090742
  0
LINE
  8
Layer0$C$L0
 10
-3.574008
 20
1.245662
 11
-3.613775
 21
1.205898
  0
LINE
  8
Layer0$C$L0
 10
-3.711715
 20
1.129170
 11
-3.750144
 21
1.090742
  0
LINE
  8
Layer0$C$L0
 10
-3.578592
 20
1.262292
 11
-3.613775
 21
1.227111
  0
LINE
  8
Layer0$C$L0
 10
-3.711715
 20
1.150382
 11
-3.751565
 21
1.110533
  0
LINE
  8
Layer0$C$L0
 10
-3.587127
 20
1.274972
 11
-3.613775
 21
1.248324
  0
LINE
  8
Layer0$C$L0
 10
-3.711715
 20
1.171596
 11
-3.751565
 21
1.131747
  0
LINE
  8
Layer0$C$L0
 10
-3.599020
 20
1.284292
 11
-3.617603
 21
1.265708
  0
LINE
  8
Layer0$C$L0
 10
-3.711715
 20
1.192809
 11
-3.751565
 21
1.152960
  0
LINE
  8
Layer0$C$L0
 10
-3.614437
 20
1.290089
 11
-3.628059
 21
1.276465
  0
LINE
  8
Layer0$C$L0
 10
-3.711715
 20
1.214022
 11
-3.751565
 21
1.174173
  0
LINE
  8
Layer0$C$L0
 10
-3.634941
 20
1.290797
 11
-3.644990
 21
1.280747
  0
LINE
  8
Layer0$C$L0
 10
-3.711715
 20
1.235236
 11
-3.751565
 21
1.195386
  0
LINE
  8
Layer0$C$L0
 10
-3.656154
 20
1.290797
 11
-3.666204
 21
1.280747
  0
LINE
  8
Layer0$C$L0
 10
-3.711715
 20
1.256448
 11
-3.751565
 21
1.216600
  0
LINE
  8
Layer0$C$L0
 10
-3.677368
 20
1.290797
 11
-3.687418
 21
1.280747
  0
LINE
  8
Layer0$C$L0
 10
-3.711715
 20
1.277662
 11
-3.751565
 21
1.237812
  0
LINE
  8
Layer0$C$L0
 10
-3.698581
 20
1.290797
 11
-3.708631
 21
1.280747
  0
LINE
  8
Layer0$C$L0
 10
-3.719793
 20
1.290797
 11
-3.751565
 21
1.259026
  0
LINE
  8
Layer0$C$L0
 10
-3.741006
 20
1.290797
 11
-3.751565
 21
1.280239
  0
ENDBLK
  8
Layer0$C$L0
  0
BLOCK
  8
Layer0$C$L0
  2
*X5
 70
     1
 10
0.000000
 20
0.000000
  0
LINE
  8
Layer0$C$L0
 10
-4.799345
 20
1.091867
 11
-4.800053
 21
1.091160
  0
LINE
  8
Layer0$C$L0
 10
-4.699345
 20
1.191867
 11
-4.700053
 21
1.191159
  0
LINE
  8
Layer0$C$L0
 10
-4.799345
 20
1.113080
 11
-4.821267
 21
1.091160
  0
LINE
  8
Layer0$C$L0
 10
-4.699345
 20
1.213081
 11
-4.721266
 21
1.191159
  0
LINE
  8
Layer0$C$L0
 10
-4.799345
 20
1.134294
 11
-4.842480
 21
1.091160
  0
LINE
  8
Layer0$C$L0
 10
-4.699345
 20
1.234293
 11
-4.742480
 21
1.191159
  0
LINE
  8
Layer0$C$L0
 10
-4.799345
 20
1.155506
 11
-4.863692
 21
1.091160
  0
LINE
  8
Layer0$C$L0
 10
-4.699345
 20
1.255507
 11
-4.763693
 21
1.191159
  0
LINE
  8
Layer0$C$L0
 10
-4.799345
 20
1.176720
 11
-4.884905
 21
1.091160
  0
LINE
  8
Layer0$C$L0
 10
-4.699345
 20
1.276719
 11
-4.784905
 21
1.191159
  0
LINE
  8
Layer0$C$L0
 10
-4.705914
 20
1.291365
 11
-4.906119
 21
1.091160
  0
LINE
  8
Layer0$C$L0
 10
-4.727128
 20
1.291365
 11
-4.775778
 21
1.242714
  0
LINE
  8
Layer0$C$L0
 10
-4.748341
 20
1.291365
 11
-4.785923
 21
1.253783
  0
LINE
  8
Layer0$C$L0
 10
-4.769555
 20
1.291365
 11
-4.796069
 21
1.264850
  0
LINE
  8
Layer0$C$L0
 10
-4.790766
 20
1.291365
 11
-4.806214
 21
1.275918
  0
LINE
  8
Layer0$C$L0
 10
-4.799401
 20
1.303944
 11
-4.816359
 21
1.286986
  0
LINE
  8
Layer0$C$L0
 10
-4.799401
 20
1.325156
 11
-4.826504
 21
1.298053
  0
LINE
  8
Layer0$C$L0
 10
-4.799401
 20
1.346370
 11
-4.836649
 21
1.309121
  0
LINE
  8
Layer0$C$L0
 10
-4.799401
 20
1.367584
 11
-4.846797
 21
1.320189
  0
LINE
  8
Layer0$C$L0
 10
-4.799401
 20
1.388796
 11
-4.856942
 21
1.331256
  0
LINE
  8
Layer0$C$L0
 10
-4.817990
 20
1.391420
 11
-4.867087
 21
1.342324
  0
LINE
  8
Layer0$C$L0
 10
-4.839203
 20
1.391420
 11
-4.877232
 21
1.353392
  0
LINE
  8
Layer0$C$L0
 10
-4.860417
 20
1.391420
 11
-4.887377
 21
1.364460
  0
LINE
  8
Layer0$C$L0
 10
-4.881630
 20
1.391420
 11
-4.897522
 21
1.375528
  0
LINE
  8
Layer0$C$L0
 10
-4.902844
 20
1.391420
 11
-4.907668
 21
1.386595
  0
ENDBLK
  8
Layer0$C$L0
  0
BLOCK
  8
Layer0$C$L0
  2
*X6
 70
     1
 10
0.000000
 20
0.000000
  0
LINE
  8
Layer0$C$L0
 10
-4.869452
 20
1.191466
 11
-4.849652
 21
1.211266
  0
LINE
  8
Layer0$C$L0
 10
-4.849652
 20
1.232479
 11
-4.890666
 21
1.191466
  0
LINE
  8
Layer0$C$L0
 10
-4.911877
 20
1.191466
 11
-4.849652
 21
1.253692
  0
LINE
  8
Layer0$C$L0
 10
-4.849652
 20
1.274905
 11
-4.933091
 21
1.191466
  0
LINE
  8
Layer0$C$L0
 10
-4.954304
 20
1.191466
 11
-4.854453
 21
1.291318
  0
LINE
  8
Layer0$C$L0
 10
-4.875666
 20
1.291318
 11
-4.975518
 21
1.191466
  0
LINE
  8
Layer0$C$L0
 10
-4.996731
 20
1.191466
 11
-4.896880
 21
1.291318
  0
LINE
  8
Layer0$C$L0
 10
-4.918093
 20
1.291318
 11
-5.011866
 21
1.197544
  0
LINE
  8
Layer0$C$L0
 10
-5.011866
 20
1.218758
 11
-4.939307
 21
1.291318
  0
LINE
  8
Layer0$C$L0
 10
-4.960520
 20
1.291318
 11
-5.011866
 21
1.239970
  0
LINE
  8
Layer0$C$L0
 10
-5.011866
 20
1.261184
 11
-4.981732
 21
1.291318
  0
LINE
  8
Layer0$C$L0
 10
-5.002945
 20
1.291318
 11
-5.011866
 21
1.282398
  0
ENDBLK
  8
Layer0$C$L0
  0
BLOCK
  8
Layer0$C$L0
  2
BP
 70
     0
 10
0.000000
 20
0.000000
  0
INSERT
  8
Layer0$C$L0
  2
NEWTITLE
 10
7.657000
 20
-4.906250
  0
INSERT
  8
Layer0$C$L0
  2
REV-HEADINGP
 10
7.657000
 20
4.906250
  0
POINT
  8
Layer0$C$L0
 10
7.657000
 20
4.906250
  0
INSERT
  8
Layer0$C$L0
 66
     1
  2
Cadra_attr_0
 10
0.000000
 20
0.000000
  0
ATTRIB
  8
Layer0$C$L0
 10
8.032000
 20
-5.281250
 40
0.156000
  1
HP7585  08.032  -05.281  00
  2
2
 70
    11
  0
SEQEND
  8
Layer0$C$L0
  0
INSERT
  8
Layer0$C$L0
 66
     1
  2
Cadra_attr_1
 10
0.000000
 20
0.000000
  0
ATTRIB
  8
Layer0$C$L0
 10
8.032000
 20
-4.936250
 40
0.156000
  1
HP7550  08.032  -04.936  00
  2
1
 70
    11
  0
SEQEND
  8
Layer0$C$L0
  0
INSERT
  8
Layer0$C$L0
 66
     1
  2
Cadra_attr_2
 10
0.000000
 20
0.000000
  0
ATTRIB
  8
Layer0$C$L0
 10
-7.718000
 20
5.218750
 40
0.156000
  1
HP7596  -07.718  05.219  180
  2
3
 70
    11
  0
SEQEND
  8
Layer0$C$L0
  0
LINE
  8
Layer0$C$L0
 10
-7.657001
 20
4.906250
 11
7.657000
 21
4.906250
  0
LINE
  8
Layer0$C$L0
 10
-7.657001
 20
4.906250
 11
-7.657001
 21
-4.906250
  0
LINE
  8
Layer0$C$L0
 10
7.654999
 20
-4.906250
 11
-7.657001
 21
-4.906250
  0
LINE
  8
Layer0$C$L0
 10
7.657000
 20
4.906250
 11
7.657000
 21
-4.906250
  0
ENDBLK
  8
Layer0$C$L0
  0
BLOCK
  8
Layer0$C$L0
  2
NEWTITLE
 70
     0
 10
0.000000
 20
0.000000
  0
INSERT
  8
Layer0$C$L0
  2
*X0
 10
0.000000
 20
0.000000
  0
INSERT
  8
Layer0$C$L0
  2
*X1
 10
0.000000
 20
0.000000
  0
INSERT
  8
Layer0$C$L0
  2
*X2
 10
0.000000
 20
0.000000
  0
INSERT
  8
Layer0$C$L0
  2
*X3
 10
0.000000
 20
0.000000
  0
INSERT
  8
Layer0$C$L0
  2
*X4
 10
0.000000
 20
0.000000
  0
INSERT
  8
Layer0$C$L0
  2
*X5
 10
0.000000
 20
0.000000
  0
INSERT
  8
Layer0$C$L0
  2
*X6
 10
0.000000
 20
0.000000
  0
TEXT
  8
Layer0$C$L0
 10
-2.370969
 20
1.281389
 40
4.687500E-02
  1
SPECIFIED: .XXXX%%p.0005;, .XXX%%p.005;, .XX%%p.01;,
 72
     5
 11
-0.227253
 21
1.281389
  0
TEXT
  8
Layer0$C$L0
 10
-2.370969
 20
1.211076
 40
4.687500E-02
  1
.X%%p.02;  X/X%%p1/32
 72
     5
 11
-1.586628
 21
1.211076
  0
TEXT
  8
Layer0$C$L0
 10
-4.979852
 20
0.252570
 40
4.687500E-02
  1
DESCRIPTION
 72
     5
 11
-4.476761
 21
0.252570
  0
TEXT
  8
Layer0$C$L0
 10
-4.979852
 20
0.568051
 40
4.687500E-02
  1
CHECKED BY:
 72
     5
 11
-4.476761
 21
0.568051
  0
TEXT
  8
Layer0$C$L0
 10
-4.979852
 20
0.901110
 40
4.687500E-02
  1
DRAWN BY:
 72
     5
 11
-4.570511
 21
0.901110
  0
TEXT
  8
Layer0$C$L0
 10
-1.871299
 20
0.252570
 40
4.687500E-02
  1
IDENTIFICATION NO. & REVISION
 72
     5
 11
-0.524459
 21
0.252570
  0
TEXT
  8
Layer0$C$L0
 10
-2.364801
 20
1.361413
 40
4.687500E-02
  1
TOLERANCE TO BE APPLIED UNLESS OTHERWISE
 72
     5
 11
-0.502335
 21
1.361413
  0
TEXT
  8
Layer0$C$L0
 10
-2.364801
 20
1.135219
 40
4.687500E-02
  1
UNSPECIFIED ANGLES%%p1%%d, SPECIFIED ANGLES%%pO%%d30'
 72
     5
 11
-0.267960
 21
1.135219
  0
TEXT
  8
Layer0$C$L0
 10
-2.364801
 20
1.052206
 40
4.687500E-02
  1
DIMENSIONS APPLY AFTER PLATING
 72
     5
 11
-0.971085
 21
1.052206
  0
TEXT
  8
Layer0$C$L0
 10
-2.364801
 20
0.943561
 40
4.687500E-02
  1
ALL SURFACES TO BE 125  UNLESS OTHERWISE SPECIFIED
 72
     5
 11
-3.358502E-02
 21
0.943561
  0
TEXT
  8
Layer0$C$L0
 10
-2.364801
 20
0.811332
 40
4.687500E-02
  1
BREAK ALL SHARP EDGES
 72
     5
 11
-1.392960
 21
0.811332
  0
TEXT
  8
Layer0$C$L0
 10
-2.444901
 20
0.381535
 40
6.300000E-02
  1
REFDOC:
 72
     5
 11
-2.020748
 21
0.381535
  0
TEXT
  8
Layer0$C$L0
 10
-2.364801
 20
0.736318
 40
4.687500E-02
  1
THIS DRAWING AND ALL INFORMATION THERE ON IS THE
 72
     5
 11
-0.127335
 21
0.736318
  0
TEXT
  8
Layer0$C$L0
 10
-2.364801
 20
0.666005
 40
4.687500E-02
  1
PROPERTY OF GOULD INC. AND IS SUBJECT TO RETURN ON
 72
     5
 11
-3.358502E-02
 21
0.666005
  0
TEXT
  8
Layer0$C$L0
 10
-2.364801
 20
0.595693
 40
4.687500E-02
  1
DEMAND.  THIS INFORMATION IS CONFIDENTIAL AND MUST
 72
     5
 11
-3.358502E-02
 21
0.595693
  0
TEXT
  8
Layer0$C$L0
 10
-2.364801
 20
0.525380
 40
4.687500E-02
  1
NOT BE MADE PUBLIC OR COPIED UNLESS AUTHORIZED.
 72
     5
 11
-0.174210
 21
0.525380
  0
TEXT
  8
Layer0$C$L0
 10
-3.135691
 20
0.907278
 40
4.687500E-02
  1
INIT. REL.
 72
     5
 11
-2.679475
 21
0.907278
  0
TEXT
  8
Layer0$C$L0
 10
-3.006168
 20
0.418541
 40
6.300000E-02
  1
NONE
 72
     5
 11
-2.771014
 21
0.418541
  0
TEXT
  8
Layer0$C$L0
 10
-3.111019
 20
0.574219
 40
4.687500E-02
  1
SCALE:
 72
     5
 11
-2.842304
 21
0.574219
  0
TEXT
  8
Layer0$C$L0
 10
-3.653783
 20
0.574219
 40
4.687500E-02
  1
DATE:
 72
     5
 11
-3.431942
 21
0.574219
  0
TEXT
  8
Layer0$C$L0
 10
-3.519015
 20
1.160825
 40
4.687500E-02
  1
P.O. BOX 729
 72
     5
 11
-2.969049
 21
1.160825
  0
TEXT
  8
Layer0$C$L0
 10
-3.515032
 20
1.089139
 40
4.687500E-02
  1
MARBLE FALLS, TX 78654
 72
     5
 11
-2.496317
 21
1.089139
  0
TEXT
  8
Layer0$C$L0
 10
-3.659951
 20
0.901110
 40
4.687500E-02
  1
DATE:
 72
     5
 11
-3.438110
 21
0.901110
  0
TEXT
  8
Layer0$C$L0
 10
-3.522998
 20
1.232512
 40
4.687500E-02
  1
GOULD INC.
 72
     5
 11
-3.066782
 21
1.232512
  0
TEXT
  8
Layer0$C$L0
 10
-5.004523
 20
0.999400
 40
6.000000E-02
  1
CIRCUIT PROTECTION DIV.
 72
     5
 11
-3.640567
 21
0.999400
  0
POINT
  8
Layer0$C$L0
 10
-1.988487
 20
0.413035
  0
LINE
  8
Layer0$C$L0
 10
-5.041019
 20
0.650082
 11
-2.475740
 21
0.650082
  0
LINE
  8
Layer0$C$L0
 10
-2.475740
 20
0.493216
 11
-4.263256E-14
 21
0.493216
  0
LINE
  8
Layer0$C$L0
 10
-5.041019
 20
1.436883
 11
-5.684342E-14
 21
1.436883
  0
LINE
  8
Layer0$C$L0
 10
-1.902138
 20
0.000000
 11
-1.902138
 21
0.326275
  0
LINE
  8
Layer0$C$L0
 10
-5.041019
 20
0.326275
 11
-5.684342E-14
 21
0.326275
  0
LINE
  8
Layer0$C$L0
 10
-3.141859
 20
0.326275
 11
-3.141859
 21
0.973890
  0
LINE
  8
Layer0$C$L0
 10
-2.475740
 20
0.326275
 11
-2.475740
 21
1.436883
  0
LINE
  8
Layer0$C$L0
 10
-5.041019
 20
0.973890
 11
-2.475740
 21
0.973890
  0
LINE
  8
Layer0$C$L0
 10
-5.041019
 20
0.000000
 11
-5.041019
 21
1.436883
  0
LINE
  8
Layer0$C$L0
 10
-5.012015
 20
1.291330
 11
-4.849514
 21
1.291330
  0
LINE
  8
Layer0$C$L0
 10
-4.849514
 20
1.291330
 11
-4.849514
 21
1.191329
  0
LINE
  8
Layer0$C$L0
 10
-4.849514
 20
1.191329
 11
-5.012015
 21
1.191329
  0
LINE
  8
Layer0$C$L0
 10
-5.012015
 20
1.191329
 11
-5.012015
 21
1.291330
  0
LINE
  8
Layer0$C$L0
 10
-4.912014
 20
1.391329
 11
-4.774516
 21
1.241329
  0
LINE
  8
Layer0$C$L0
 10
-4.774516
 20
1.241329
 11
-4.912014
 21
1.091330
  0
LINE
  8
Layer0$C$L0
 10
-4.912014
 20
1.091330
 11
-4.799515
 21
1.091330
  0
LINE
  8
Layer0$C$L0
 10
-4.799515
 20
1.091330
 11
-4.799515
 21
1.191329
  0
LINE
  8
Layer0$C$L0
 10
-4.799515
 20
1.191329
 11
-4.699515
 21
1.191329
  0
LINE
  8
Layer0$C$L0
 10
-4.699515
 20
1.191329
 11
-4.699515
 21
1.291330
  0
LINE
  8
Layer0$C$L0
 10
-4.699515
 20
1.291330
 11
-4.799515
 21
1.291330
  0
LINE
  8
Layer0$C$L0
 10
-4.799515
 20
1.291330
 11
-4.799515
 21
1.391329
  0
LINE
  8
Layer0$C$L0
 10
-4.799515
 20
1.391329
 11
-4.912014
 21
1.391329
  0
LINE
  8
Layer0$C$L0
 10
-3.791704
 20
1.100873
 11
-3.791704
 21
1.090874
  0
LINE
  8
Layer0$C$L0
 10
-3.969703
 20
1.290874
 11
-3.929704
 21
1.290874
  0
LINE
  8
Layer0$C$L0
 10
-4.049703
 20
1.290874
 11
-4.009704
 21
1.290874
  0
LINE
  8
Layer0$C$L0
 10
-4.187704
 20
1.290874
 11
-4.147705
 21
1.290874
  0
LINE
  8
Layer0$C$L0
 10
-3.573703
 20
1.140873
 11
-3.573703
 21
1.240874
  0
LINE
  8
Layer0$C$L0
 10
-3.751705
 20
1.090874
 11
-3.751705
 21
1.290874
  0
LINE
  8
Layer0$C$L0
 10
-3.613704
 20
1.130874
 11
-3.613704
 21
1.250874
  0
LINE
  8
Layer0$C$L0
 10
-3.711704
 20
1.100873
 11
-3.711704
 21
1.280874
  0
LINE
  8
Layer0$C$L0
 10
-3.751705
 20
1.090874
 11
-3.623704
 21
1.090874
  0
LINE
  8
Layer0$C$L0
 10
-3.751705
 20
1.290874
 11
-3.623704
 21
1.290874
  0
LINE
  8
Layer0$C$L0
 10
-3.711704
 20
1.100873
 11
-3.643703
 21
1.100873
  0
LINE
  8
Layer0$C$L0
 10
-3.711704
 20
1.280874
 11
-3.643703
 21
1.280874
  0
ARC
  8
Layer0$C$L0
 10
-3.623704
 20
1.140873
 40
5.000000E-02
 50
270.000001
 51
360.000010
  0
ARC
  8
Layer0$C$L0
 10
-3.623704
 20
1.240874
 40
5.000000E-02
 50
0.000000
 51
90.000003
  0
ARC
  8
Layer0$C$L0
 10
-3.643703
 20
1.130874
 40
3.000000E-02
 50
270.000001
 51
360.000010
  0
ARC
  8
Layer0$C$L0
 10
-3.643703
 20
1.250874
 40
3.000000E-02
 50
1.001791E-05
 51
89.999989
  0
LINE
  8
Layer0$C$L0
 10
-3.969703
 20
1.090874
 11
-3.969703
 21
1.290874
  0
LINE
  8
Layer0$C$L0
 10
-3.929704
 20
1.100873
 11
-3.929704
 21
1.290874
  0
LINE
  8
Layer0$C$L0
 10
-3.969703
 20
1.090874
 11
-3.791704
 21
1.090874
  0
LINE
  8
Layer0$C$L0
 10
-3.929704
 20
1.100873
 11
-3.791704
 21
1.100873
  0
LINE
  8
Layer0$C$L0
 10
-4.227705
 20
1.140873
 11
-4.227705
 21
1.240874
  0
LINE
  8
Layer0$C$L0
 10
-4.405706
 20
1.140873
 11
-4.405706
 21
1.240874
  0
LINE
  8
Layer0$C$L0
 10
-4.267704
 20
1.130874
 11
-4.267704
 21
1.250874
  0
LINE
  8
Layer0$C$L0
 10
-4.365705
 20
1.130874
 11
-4.365705
 21
1.250874
  0
LINE
  8
Layer0$C$L0
 10
-4.355705
 20
1.090874
 11
-4.277704
 21
1.090874
  0
LINE
  8
Layer0$C$L0
 10
-4.355705
 20
1.290874
 11
-4.277704
 21
1.290874
  0
LINE
  8
Layer0$C$L0
 10
-4.335706
 20
1.100873
 11
-4.297704
 21
1.100873
  0
LINE
  8
Layer0$C$L0
 10
-4.335706
 20
1.280874
 11
-4.297704
 21
1.280874
  0
ARC
  8
Layer0$C$L0
 10
-4.355705
 20
1.140873
 40
5.000000E-02
 50
180.000005
 51
270.000001
  0
ARC
  8
Layer0$C$L0
 10
-4.277704
 20
1.140873
 40
5.000000E-02
 50
270.000001
 51
360.000010
  0
ARC
  8
Layer0$C$L0
 10
-4.277704
 20
1.240874
 40
5.000000E-02
 50
0.000000
 51
90.000003
  0
ARC
  8
Layer0$C$L0
 10
-4.355705
 20
1.240874
 40
5.000000E-02
 50
90.000003
 51
180.000005
  0
ARC
  8
Layer0$C$L0
 10
-4.335706
 20
1.130874
 40
3.000000E-02
 50
180.000005
 51
270.000001
  0
ARC
  8
Layer0$C$L0
 10
-4.297704
 20
1.130874
 40
3.000000E-02
 50
270.000001
 51
360.000010
  0
ARC
  8
Layer0$C$L0
 10
-4.297704
 20
1.250874
 40
3.000000E-02
 50
1.001791E-05
 51
89.999989
  0
ARC
  8
Layer0$C$L0
 10
-4.335706
 20
1.250874
 40
3.000000E-02
 50
90.000003
 51
180.000005
  0
ARC
  8
Layer0$C$L0
 10
-4.505706
 20
1.157874
 40
2.000000E-02
 50
0.000000
 51
90.000003
  0
LINE
  8
Layer0$C$L0
 10
-4.445705
 20
1.140873
 11
-4.445705
 21
1.190874
  0
LINE
  8
Layer0$C$L0
 10
-4.485706
 20
1.130874
 11
-4.485706
 21
1.157874
  0
LINE
  8
Layer0$C$L0
 10
-4.485706
 20
1.215874
 11
-4.445705
 21
1.215874
  0
LINE
  8
Layer0$C$L0
 10
-4.445705
 20
1.215874
 11
-4.445705
 21
1.240874
  0
LINE
  8
Layer0$C$L0
 10
-4.623706
 20
1.140873
 11
-4.623706
 21
1.240874
  0
LINE
  8
Layer0$C$L0
 10
-4.485706
 20
1.215874
 11
-4.485706
 21
1.250874
  0
LINE
  8
Layer0$C$L0
 10
-4.583705
 20
1.130874
 11
-4.583705
 21
1.250874
  0
LINE
  8
Layer0$C$L0
 10
-4.573705
 20
1.090874
 11
-4.495706
 21
1.090874
  0
LINE
  8
Layer0$C$L0
 10
-4.573705
 20
1.290874
 11
-4.495706
 21
1.290874
  0
LINE
  8
Layer0$C$L0
 10
-4.553707
 20
1.100873
 11
-4.515705
 21
1.100873
  0
LINE
  8
Layer0$C$L0
 10
-4.553707
 20
1.280874
 11
-4.515705
 21
1.280874
  0
ARC
  8
Layer0$C$L0
 10
-4.573705
 20
1.140873
 40
5.000000E-02
 50
180.000005
 51
270.000001
  0
ARC
  8
Layer0$C$L0
 10
-4.495706
 20
1.140873
 40
5.000000E-02
 50
270.000001
 51
360.000010
  0
ARC
  8
Layer0$C$L0
 10
-4.495706
 20
1.240874
 40
5.000000E-02
 50
0.000000
 51
90.000003
  0
ARC
  8
Layer0$C$L0
 10
-4.573705
 20
1.240874
 40
5.000000E-02
 50
90.000003
 51
180.000005
  0
ARC
  8
Layer0$C$L0
 10
-4.553707
 20
1.130874
 40
3.000000E-02
 50
180.000005
 51
270.000001
  0
ARC
  8
Layer0$C$L0
 10
-4.515705
 20
1.130874
 40
3.000000E-02
 50
270.000001
 51
360.000010
  0
ARC
  8
Layer0$C$L0
 10
-4.515705
 20
1.250874
 40
3.000000E-02
 50
1.001791E-05
 51
89.999989
  0
ARC
  8
Layer0$C$L0
 10
-4.553707
 20
1.250874
 40
3.000000E-02
 50
90.000003
 51
180.000005
  0
ARC
  8
Layer0$C$L0
 10
-4.079704
 20
1.130874
 40
3.000000E-02
 50
270.000001
 51
360.000010
  0
ARC
  8
Layer0$C$L0
 10
-4.117704
 20
1.130874
 40
3.000000E-02
 50
180.000005
 51
270.000001
  0
ARC
  8
Layer0$C$L0
 10
-4.059703
 20
1.140873
 40
5.000000E-02
 50
270.000001
 51
360.000010
  0
ARC
  8
Layer0$C$L0
 10
-4.137704
 20
1.140873
 40
5.000000E-02
 50
180.000005
 51
270.000001
  0
LINE
  8
Layer0$C$L0
 10
-4.117704
 20
1.100873
 11
-4.079704
 21
1.100873
  0
LINE
  8
Layer0$C$L0
 10
-4.137704
 20
1.090874
 11
-4.059703
 21
1.090874
  0
LINE
  8
Layer0$C$L0
 10
-4.147705
 20
1.130874
 11
-4.147705
 21
1.290874
  0
LINE
  8
Layer0$C$L0
 10
-4.049703
 20
1.130874
 11
-4.049703
 21
1.290874
  0
LINE
  8
Layer0$C$L0
 10
-4.187704
 20
1.140873
 11
-4.187704
 21
1.290874
  0
LINE
  8
Layer0$C$L0
 10
-4.009704
 20
1.140873
 11
-4.009704
 21
1.290874
  0
LINE
  8
Layer0$C$L0
 10
-4.530706
 20
1.177874
 11
-4.530706
 21
1.190874
  0
LINE
  8
Layer0$C$L0
 10
-4.530706
 20
1.177874
 11
-4.505706
 21
1.177874
  0
LINE
  8
Layer0$C$L0
 10
-4.530706
 20
1.190874
 11
-4.445705
 21
1.190874
  0
LINE
  8
Layer0$C$L0
 10
-1.368988
 20
0.887476
 11
-1.396059
 21
0.934364
  0
LINE
  8
Layer0$C$L0
 10
-1.368988
 20
0.887476
 11
-1.291639
 21
1.021448
  0
ENDBLK
  8
Layer0$C$L0
  0
BLOCK
  8
Layer0$C$L0
  2
REV-HEADINGP
 70
     0
 10
0.000000
 20
0.000000
  0
TEXT
  8
Layer0$C$L0
 10
-0.271321
 20
-0.141521
 40
6.250000E-02
  1
CK
 72
     5
 11
-0.163033
 21
-0.141521
  0
TEXT
  8
Layer0$C$L0
 10
-0.641315
 20
-0.141704
 40
6.250000E-02
  1
BY
 72
     5
 11
-0.533027
 21
-0.141704
  0
TEXT
  8
Layer0$C$L0
 10
-2.220139
 20
-0.141521
 40
6.250000E-02
  1
DESCRIPTION
 72
     5
 11
-1.549351
 21
-0.141521
  0
TEXT
  8
Layer0$C$L0
 10
-3.281666
 20
-0.141521
 40
6.250000E-02
  1
ECO
 72
     5
 11
-3.110879
 21
-0.141521
  0
TEXT
  8
Layer0$C$L0
 10
-3.814410
 20
-0.141521
 40
6.250000E-02
  1
DATE
 72
     5
 11
-3.581123
 21
-0.141521
  0
TEXT
  8
Layer0$C$L0
 10
-4.289352
 20
-0.141521
 40
6.250000E-02
  1
REV
 72
     5
 11
-4.118564
 21
-0.141521
  0
LINE
  8
Layer0$C$L0
 10
0.000000
 20
-0.200000
 11
0.000000
 21
0.000000
  0
LINE
  8
Layer0$C$L0
 10
-0.375000
 20
-0.200000
 11
-0.375000
 21
0.000000
  0
LINE
  8
Layer0$C$L0
 10
-0.750000
 20
-0.200000
 11
-0.750000
 21
0.000000
  0
LINE
  8
Layer0$C$L0
 10
-3.000000
 20
-0.200000
 11
-3.000000
 21
0.000000
  0
LINE
  8
Layer0$C$L0
 10
-3.375000
 20
-0.200000
 11
-3.375000
 21
0.000000
  0
LINE
  8
Layer0$C$L0
 10
-4.000000
 20
-0.200000
 11
-4.000000
 21
0.000000
  0
LINE
  8
Layer0$C$L0
 10
-4.375000
 20
-0.200000
 11
-4.375000
 21
0.000000
  0
LINE
  8
Layer0$C$L0
 10
-4.375000
 20
-0.200000
 11
0.000000
 21
-0.200000
  0
ENDBLK
  8
Layer0$C$L0
  0
BLOCK
  8
Layer0$C$L0
  2
Cadra_attr_0
 70
     2
 10
0.000000
 20
0.000000
  0
POINT
  8
Layer0$C$L0
 10
8.032000
 20
-5.281250
  0
ATTDEF
  8
Layer0$C$L0
 10
8.032000
 20
-5.281250
 40
0.156000
  1
HP7585  08.032  -05.281  00
  3

  2
2
 70
    11
  0
ENDBLK
  8
Layer0$C$L0
  0
BLOCK
  8
Layer0$C$L0
  2
Cadra_attr_1
 70
     2
 10
0.000000
 20
0.000000
  0
POINT
  8
Layer0$C$L0
 10
8.032000
 20
-4.936250
  0
ATTDEF
  8
Layer0$C$L0
 10
8.032000
 20
-4.936250
 40
0.156000
  1
HP7550  08.032  -04.936  00
  3

  2
1
 70
    11
  0
ENDBLK
  8
Layer0$C$L0
  0
BLOCK
  8
Layer0$C$L0
  2
Cadra_attr_2
 70
     2
 10
0.000000
 20
0.000000
  0
POINT
  8
Layer0$C$L0
 10
-7.718000
 20
5.218750
  0
ATTDEF
  8
Layer0$C$L0
 10
-7.718000
 20
5.218750
 40
0.156000
  1
HP7596  -07.718  05.219  180
  3

  2
3
 70
    11
  0
ENDBLK
  8
Layer0$C$L0
  0
BLOCK
  8
Layer0$C$L0
  2
REV-LINESP
 70
     0
 10
0.000000
 20
0.000000
  0
POINT
  8
Layer0$C$L0
 10
0.000000
 20
0.000000
  0
LINE
  8
Layer0$C$L0
 10
0.000000
 20
-0.200000
 11
0.000000
 21
0.000000
  0
LINE
  8
Layer0$C$L0
 10
-0.375000
 20
-0.200000
 11
-0.375000
 21
0.000000
  0
LINE
  8
Layer0$C$L0
 10
-0.750000
 20
-0.200000
 11
-0.750000
 21
0.000000
  0
LINE
  8
Layer0$C$L0
 10
-3.000000
 20
-0.200000
 11
-3.000000
 21
0.000000
  0
LINE
  8
Layer0$C$L0
 10
-3.375000
 20
-0.200000
 11
-3.375000
 21
0.000000
  0
LINE
  8
Layer0$C$L0
 10
-4.000000
 20
-0.200000
 11
-4.000000
 21
0.000000
  0
LINE
  8
Layer0$C$L0
 10
-4.375000
 20
-0.200000
 11
-4.375000
 21
0.000000
  0
LINE
  8
Layer0$C$L0
 10
-4.375000
 20
-0.200000
 11
0.000000
 21
-0.200000
  0
ENDBLK
  8
Layer0$C$L0
  0
ENDSEC
  0
SECTION
  2
ENTITIES
  0
INSERT
  8
Layer0$C$L0
  2
BP
 10
10.562500
 20
5.406250
  0
TEXT
  8
Layer0$C$L0
 10
3.981488
 20
1.900352
 40
0.125000
  1
P/N 63152 USES HEX SET SCREW.
 72
     5
 11
7.573063
 21
1.900352
  0
TEXT
  8
Layer0$C$L0
 10
3.612490
 20
2.111871
 40
0.125000
  1
2  P/N 62152 USES SLOTTED SET SCREW
 72
     5
 11
7.954065
 21
2.111871
  0
POLYLINE
  8
Layer0$C$L0
 66
     1
 70
     1
  0
VERTEX
  8
Layer0$C$L0
 10
3.549990
 20
2.299371
  0
VERTEX
  8
Layer0$C$L0
 10
3.766565
 20
2.299371
  0
VERTEX
  8
Layer0$C$L0
 10
3.766565
 20
2.049371
  0
VERTEX
  8
Layer0$C$L0
 10
3.549990
 20
2.049371
  0
SEQEND
  8
Layer0$C$L0
  0
TEXT
  8
Layer0$C$L0
 10
4.001287
 20
2.484408
 40
0.125000
  1
(1) 2/0-#14 X (1) 2/0-#14 2 POLE 600V
 72
     5
 11
8.592862
 21
2.484408
  0
POLYLINE
  8
Layer0$C$L0
 66
     1
  0
VERTEX
  8
Layer0$C$L0
 10
6.772889
 20
9.355639
  0
VERTEX
  8
Layer0$C$L0
 10
7.384572
 20
10.031338
  0
VERTEX
  8
Layer0$C$L0
 10
7.484572
 20
10.031338
  0
SEQEND
  8
Layer0$C$L0
  0
SOLID
  8
Layer0$C$L0
 62
     0
 10
6.898134
 20
9.448642
 11
6.853009
 21
9.489492
 12
6.772889
 22
9.355639
 13
6.772889
 23
9.355639
  0
TEXT
  8
Layer0$C$L0
 10
7.547072
 20
9.968838
 40
0.125000
  1
%%c.20 X .125 DP
 72
     5
 11
9.296148
 21
9.968838
  0
TEXT
  8
Layer0$C$L0
 10
7.547072
 20
9.781338
 40
0.125000
  1
TYP (4) PLCS
 72
     5
 11
9.013648
 21
9.781338
  0
TEXT
  8
Layer0$C$L0
 10
15.610579
 20
2.118677
 40
0.125000
  1
P/N 63152 (CU-AL)
 72
     5
 11
17.702154
 21
2.118677
  0
TEXT
  8
Layer0$C$L0
 10
15.602816
 20
2.335844
 40
0.125000
  1
P/N 62152 (CU ONLY)
 72
     5
 11
17.944391
 21
2.335844
  0
DIMENSION
  8
Layer0$C$L0
  2
*D0
 10
7.171163
 20
3.073899
 11
6.268481
 21
3.073899
 13
5.397944
 23
3.349380
 14
7.171163
 24
3.349173
 50
180.000000
  3
DIM0
  0
TEXT
  8
Layer0$C$L0
 10
16.501240
 20
0.536880
 40
0.125000
  1
05B0276
 72
     5
 11
17.342815
 21
0.536880
  0
TEXT
  8
Layer0$C$L0
 10
13.365510
 20
0.545089
 40
0.125000
  1
PDB
 72
     5
 11
13.707086
 21
0.545089
  0
TEXT
  8
Layer0$C$L0
 10
15.162962
 20
1.197144
 40
0.125000
  1
92-055
 41
0.920922
 72
     5
 11
15.738538
 21
1.197144
  0
TEXT
  8
Layer0$C$L0
 10
14.481895
 20
1.201785
 40
0.125000
  1
4/92
 72
     5
 11
14.948470
 21
1.201785
  0
TEXT
  8
Layer0$C$L0
 10
13.619115
 20
1.212155
 40
0.125000
  1
KDS
 72
     5
 11
13.960691
 21
1.212155
  0
LINE
  8
Layer0$C$L0
 10
5.400742
 20
6.724221
 11
7.172646
 21
6.724221
  0
LINE
  8
Layer0$C$L0
 10
5.400742
 20
9.599221
 11
7.173961
 21
9.599221
  0
TEXT
  8
Layer0$C$L0
 10
17.906502
 20
9.950500
 40
0.125000
  1
GO
 72
     5
 11
18.123077
 21
9.950500
  0
TEXT
  8
Layer0$C$L0
 10
17.531502
 20
9.950500
 40
0.125000
  1
BM
 72
     5
 11
17.748077
 21
9.950500
  0
TEXT
  8
Layer0$C$L0
 10
14.280027
 20
9.952495
 40
0.125000
  1
5/92
 72
     5
 11
14.746603
 21
9.952495
  0
DIMENSION
  8
Layer0$C$L0
  2
*D1
  1
<>.98
 10
4.849087
 20
4.348221
 11
4.849087
 21
3.939263
 13
5.404974
 23
3.349221
 14
5.878646
 24
4.348221
 50
90.000000
  3
DIM0
  0
DIMENSION
  8
Layer0$C$L0
  2
*D2
 10
4.370329
 20
3.349221
 11
4.370329
 21
4.481312
 13
5.466478
 23
5.357749
 14
5.404974
 24
3.349221
 50
90.000000
  3
DIM0
  0
DIMENSION
  8
Layer0$C$L0
  2
*D3
 70
     1
 10
6.698646
 20
6.008172
 11
7.074309
 21
6.008172
 13
5.878646
 23
6.800847
 14
6.698646
 24
6.800847
  3
DIM0
  0
DIMENSION
  8
Layer0$C$L0
  2
*D4
 10
4.844099
 20
7.037220
 11
4.844099
 21
5.922288
 13
5.400742
 23
6.724221
 14
5.694015
 24
7.037220
 50
90.000000
  3
DIM0
  0
DIMENSION
  8
Layer0$C$L0
  2
*D5
 10
5.878646
 20
6.363794
 11
6.254309
 21
6.363794
 13
5.400742
 23
6.700381
 14
5.878646
 24
6.800847
  3
DIM0
  0
POLYLINE
  8
Layer0$C$L0
 66
     1
  0
VERTEX
  8
Layer0$C$L0
 10
6.848982
 20
7.494831
  0
VERTEX
  8
Layer0$C$L0
 10
7.438684
 20
6.726606
  0
VERTEX
  8
Layer0$C$L0
 10
7.638685
 20
6.726606
  0
SEQEND
  8
Layer0$C$L0
  0
SOLID
  8
Layer0$C$L0
 62
     0
 10
6.918004
 20
7.354932
 11
6.966288
 21
7.391995
 12
6.848982
 22
7.494831
 13
6.848982
 23
7.494831
  0
POLYLINE
  8
Layer0$C$L0
 66
     1
 70
     1
  0
VERTEX
  8
Layer0$C$L0
 10
7.638685
 20
6.851606
  0
VERTEX
  8
Layer0$C$L0
 10
7.855260
 20
6.851606
  0
VERTEX
  8
Layer0$C$L0
 10
7.855260
 20
6.601606
  0
VERTEX
  8
Layer0$C$L0
 10
7.638685
 20
6.601606
  0
SEQEND
  8
Layer0$C$L0
  0
TEXT
  8
Layer0$C$L0
 10
7.701185
 20
6.664106
 40
0.125000
  1
2
 72
     5
 11
7.792761
 21
6.664106
  0
DIMENSION
  8
Layer0$C$L0
  2
*D6
 10
4.844100
 20
9.287222
 11
4.844099
 21
8.140244
 13
5.694015
 23
7.037220
 14
5.682289
 24
9.287220
 50
-90.000000
  3
DIM0
  0
DIMENSION
  8
Layer0$C$L0
  2
*D7
 70
     1
 10
4.350052
 20
9.599220
 11
4.350052
 21
8.655313
 13
5.400742
 23
6.724221
 14
5.400742
 24
9.599220
 50
90.000000
  3
DIM0
  0
LINE
  8
Layer0$C$L0
 10
6.542176
 20
4.929269
 11
6.542176
 21
4.879269
  0
LINE
  8
Layer0$C$L0
 10
6.855176
 20
4.929269
 11
6.855176
 21
4.879269
  0
LINE
  8
Layer0$C$L0
 10
6.542176
 20
4.929269
 11
6.855176
 21
4.929269
  0
ARC
  8
Layer0$C$L0
 10
6.698676
 20
4.789773
 40
0.209646
 50
41.712177
 51
84.525736
  0
LINE
  8
Layer0$C$L0
 10
6.678676
 20
4.979432
 11
6.678676
 21
4.998463
  0
LINE
  8
Layer0$C$L0
 10
6.718676
 20
4.979432
 11
6.718676
 21
4.998463
  0
LINE
  8
Layer0$C$L0
 10
6.677743
 20
4.979432
 11
6.718676
 21
4.979432
  0
ARC
  8
Layer0$C$L0
 10
6.698676
 20
4.789773
 40
0.209646
 50
95.474269
 51
138.287821
  0
ARC
  8
Layer0$C$L0
 10
5.878646
 20
4.789724
 40
0.209646
 50
95.474269
 51
138.287821
  0
LINE
  8
Layer0$C$L0
 10
5.857713
 20
4.979383
 11
5.898646
 21
4.979383
  0
LINE
  8
Layer0$C$L0
 10
5.898646
 20
4.979383
 11
5.898646
 21
4.998415
  0
LINE
  8
Layer0$C$L0
 10
5.858646
 20
4.979383
 11
5.858646
 21
4.998415
  0
ARC
  8
Layer0$C$L0
 10
5.878646
 20
4.789724
 40
0.209646
 50
41.712177
 51
84.525736
  0
LINE
  8
Layer0$C$L0
 10
5.722146
 20
4.929221
 11
6.035146
 21
4.929221
  0
LINE
  8
Layer0$C$L0
 10
6.035146
 20
4.929221
 11
6.035146
 21
4.879220
  0
LINE
  8
Layer0$C$L0
 10
5.722146
 20
4.929221
 11
5.722146
 21
4.879220
  0
LINE
  8
Layer0$C$L0
 10
5.406495
 20
5.287220
 11
5.526495
 21
5.287220
  0
ARC
  8
Layer0$C$L0
 10
5.466478
 20
5.237220
 40
0.120528
 50
0.000000
 51
180.000005
  0
TEXT
  8
Layer0$C$L0
 10
15.279369
 20
9.952653
 40
0.125000
  1
RELEASED
 72
     5
 11
16.245945
 21
9.952653
  0
TEXT
  8
Layer0$C$L0
 10
13.899824
 20
9.952653
 40
0.125000
  1
00
 72
     5
 11
14.116399
 21
9.952653
  0
TEXT
  8
Layer0$C$L0
 10
3.989156
 20
1.123333
 40
0.125000
  1
CONNECTOR-ALUMINUM OR COPPER ALLOY-TIN PLATED.
 72
     5
 11
9.705732
 21
1.123333
  0
TEXT
  8
Layer0$C$L0
 10
3.643111
 20
0.673864
 40
0.125000
  1
NOTES: UNLESS OTHERWISE SPECIFIED
 72
     5
 11
7.734687
 21
0.673864
  0
TEXT
  8
Layer0$C$L0
 10
3.627291
 20
2.484408
 40
0.125000
  1
3.
 72
     5
 11
3.843866
 21
2.484408
  0
TEXT
  8
Layer0$C$L0
 10
3.583833
 20
1.561923
 40
0.125000
  1
1.
 72
     5
 11
3.800408
 21
1.561923
  0
TEXT
  8
Layer0$C$L0
 10
3.989156
 20
1.566603
 40
0.125000
  1
MATERIAL COMPOSITION AND RATING:
 72
     5
 11
7.955732
 21
1.566603
  0
TEXT
  8
Layer0$C$L0
 10
3.989156
 20
1.353177
 40
0.125000
  1
BASE-THERMOPLASTIC 125%%dC RTI
 72
     5
 11
7.455732
 21
1.353177
  0
INSERT
  8
Layer0$C$L0
  2
REV-LINESP
 10
18.219502
 20
9.721072
  0
INSERT
  8
Layer0$C$L0
  2
REV-LINESP
 10
18.219502
 20
9.912948
  0
INSERT
  8
Layer0$C$L0
  2
REV-LINESP
 10
18.219502
 20
10.112499
  0
LINE
  8
Layer0$C$L0
 10
5.669706
 20
4.498344
 11
5.878646
 21
4.442358
  0
LINE
  8
Layer0$C$L0
 10
5.878646
 20
4.442358
 11
6.087586
 21
4.498344
  0
LINE
  8
Layer0$C$L0
 10
5.669706
 20
4.498344
 11
5.669706
 21
4.636097
  0
LINE
  8
Layer0$C$L0
 10
6.087586
 20
4.498344
 11
6.087586
 21
4.636098
  0
LINE
  8
Layer0$C$L0
 10
5.669706
 20
4.498344
 11
6.087586
 21
4.498344
  0
LINE
  8
Layer0$C$L0
 10
5.669706
 20
4.548344
 11
6.087586
 21
4.548344
  0
LINE
  8
Layer0$C$L0
 10
5.669706
 20
4.598344
 11
6.087586
 21
4.598344
  0
LINE
  8
Layer0$C$L0
 10
5.674150
 20
4.648345
 11
6.083143
 21
4.648345
  0
LINE
  8
Layer0$C$L0
 10
5.701993
 20
4.698345
 11
6.055299
 21
4.698345
  0
LINE
  8
Layer0$C$L0
 10
5.753770
 20
4.748345
 11
6.003522
 21
4.748345
  0
CIRCLE
  8
Layer0$C$L0
 10
5.878646
 20
4.567221
 40
0.220000
  0
CIRCLE
  8
Layer0$C$L0
 10
6.698646
 20
4.567221
 40
0.220000
  0
LINE
  8
Layer0$C$L0
 10
6.573770
 20
4.748345
 11
6.823522
 21
4.748345
  0
LINE
  8
Layer0$C$L0
 10
6.521992
 20
4.698345
 11
6.875300
 21
4.698345
  0
LINE
  8
Layer0$C$L0
 10
6.494150
 20
4.648345
 11
6.903143
 21
4.648345
  0
LINE
  8
Layer0$C$L0
 10
6.489706
 20
4.598344
 11
6.907587
 21
4.598344
  0
LINE
  8
Layer0$C$L0
 10
6.489706
 20
4.548344
 11
6.907587
 21
4.548344
  0
LINE
  8
Layer0$C$L0
 10
6.489706
 20
4.498344
 11
6.907587
 21
4.498344
  0
LINE
  8
Layer0$C$L0
 10
6.907587
 20
4.498344
 11
6.907587
 21
4.636098
  0
LINE
  8
Layer0$C$L0
 10
6.489706
 20
4.498344
 11
6.489706
 21
4.636097
  0
LINE
  8
Layer0$C$L0
 10
6.698646
 20
4.442358
 11
6.907587
 21
4.498344
  0
LINE
  8
Layer0$C$L0
 10
6.489706
 20
4.498344
 11
6.698646
 21
4.442358
  0
LINE
  8
Layer0$C$L0
 10
6.426647
 20
4.129220
 11
6.960064
 21
4.129220
  0
LINE
  8
Layer0$C$L0
 10
6.429848
 20
3.880221
 11
6.955456
 21
3.880221
  0
LINE
  8
Layer0$C$L0
 10
7.010945
 20
5.287220
 11
7.192012
 21
5.287220
  0
LINE
  8
Layer0$C$L0
 10
5.397944
 20
3.349221
 11
7.171163
 21
3.349221
  0
LINE
  8
Layer0$C$L0
 10
6.980950
 20
5.257776
 11
6.947942
 21
3.474221
  0
LINE
  8
Layer0$C$L0
 10
7.222007
 20
5.257742
 11
7.244826
 21
3.946554
  0
LINE
  8
Layer0$C$L0
 10
7.041363
 20
5.257352
 11
7.033496
 21
3.474221
  0
LINE
  8
Layer0$C$L0
 10
7.171163
 20
3.349221
 11
7.161644
 21
5.257370
  0
ARC
  8
Layer0$C$L0
 10
7.192012
 20
5.257220
 40
3.000000E-02
 50
0.996987
 51
90.000003
  0
ARC
  8
Layer0$C$L0
 10
7.010945
 20
5.257220
 40
3.000000E-02
 50
90.000003
 51
178.939768
  0
ARC
  8
Layer0$C$L0
 10
7.071363
 20
5.257220
 40
3.000000E-02
 50
90.000003
 51
179.747220
  0
ARC
  8
Layer0$C$L0
 10
7.131644
 20
5.257220
 40
3.000000E-02
 50
0.285851
 51
90.000003
  0
LINE
  8
Layer0$C$L0
 10
7.244849
 20
3.945220
 11
7.168190
 21
3.945220
  0
LINE
  8
Layer0$C$L0
 10
6.429848
 20
3.945220
 11
6.429848
 21
3.474221
  0
LINE
  8
Layer0$C$L0
 10
6.429848
 20
3.945220
 11
6.348190
 21
3.945220
  0
LINE
  8
Layer0$C$L0
 10
6.429848
 20
3.474221
 11
7.033496
 21
3.474221
  0
LINE
  8
Layer0$C$L0
 10
6.407007
 20
4.879220
 11
6.973944
 21
4.879220
  0
LINE
  8
Layer0$C$L0
 10
6.514015
 20
7.037220
 11
6.889259
 21
7.037220
  0
LINE
  8
Layer0$C$L0
 10
6.502288
 20
9.287221
 11
6.859943
 21
9.287221
  0
LINE
  8
Layer0$C$L0
 10
6.698646
 20
9.474459
 11
6.698646
 21
9.105078
  0
LINE
  8
Layer0$C$L0
 10
6.698646
 20
7.228860
 11
6.698646
 21
6.800847
  0
LINE
  8
Layer0$C$L0
 10
7.035742
 20
6.724221
 11
7.035742
 21
6.790222
  0
LINE
  8
Layer0$C$L0
 10
7.044293
 20
6.724221
 11
7.044293
 21
6.811798
  0
LINE
  8
Layer0$C$L0
 10
7.164293
 20
6.724221
 11
7.164293
 21
6.811798
  0
ARC
  8
Layer0$C$L0
 10
7.104292
 20
6.915720
 40
0.143000
 50
10.872696
 51
61.445304
  0
ARC
  8
Layer0$C$L0
 10
7.104292
 20
6.915720
 40
0.120000
 50
299.999967
 51
420.000025
  0
ARC
  8
Layer0$C$L0
 10
7.104292
 20
6.915720
 40
0.120000
 50
119.999990
 51
240.000034
  0
ARC
  8
Layer0$C$L0
 10
7.104292
 20
6.915720
 40
0.143000
 50
169.334938
 51
241.355635
  0
ARC
  8
Layer0$C$L0
 10
7.104292
 20
9.407721
 40
0.143000
 50
118.644361
 51
241.355663
  0
ARC
  8
Layer0$C$L0
 10
7.104292
 20
9.407721
 40
0.120000
 50
119.999990
 51
240.000034
  0
LINE
  8
Layer0$C$L0
 10
7.035742
 20
7.041219
 11
7.035742
 21
9.282222
  0
LINE
  8
Layer0$C$L0
 10
7.044293
 20
7.019643
 11
7.044293
 21
9.303798
  0
ARC
  8
Layer0$C$L0
 10
7.104292
 20
9.407721
 40
0.143000
 50
298.554699
 51
420.843663
  0
ARC
  8
Layer0$C$L0
 10
7.104292
 20
9.407721
 40
0.120000
 50
299.999967
 51
420.000025
  0
LINE
  8
Layer0$C$L0
 10
7.164293
 20
7.019643
 11
7.164293
 21
9.303798
  0
LINE
  8
Layer0$C$L0
 10
7.044293
 20
9.511644
 11
7.044293
 21
9.599221
  0
LINE
  8
Layer0$C$L0
 10
7.164293
 20
9.511644
 11
7.164293
 21
9.599221
  0
LINE
  8
Layer0$C$L0
 10
7.035742
 20
9.533220
 11
7.035742
 21
9.599221
  0
CIRCLE
  8
Layer0$C$L0
 10
7.104292
 20
9.407721
 40
5.554999E-02
  0
CIRCLE
  8
Layer0$C$L0
 10
7.104292
 20
6.915720
 40
5.554999E-02
  0
LINE
  8
Layer0$C$L0
 10
7.173961
 20
9.532602
 11
7.173961
 21
9.599221
  0
LINE
  8
Layer0$C$L0
 10
6.432646
 20
6.724221
 11
6.432646
 21
7.286721
  0
LINE
  8
Layer0$C$L0
 10
7.172646
 20
6.724221
 11
7.172646
 21
6.790115
  0
LINE
  8
Layer0$C$L0
 10
7.172646
 20
7.041326
 11
7.172646
 21
9.282115
  0
CIRCLE
  8
Layer0$C$L0
 10
6.698646
 20
9.287221
 40
0.101000
  0
CIRCLE
  8
Layer0$C$L0
 10
6.698646
 20
7.037220
 40
0.101000
  0
ARC
  8
Layer0$C$L0
 10
7.104292
 20
6.915720
 40
0.143000
 50
298.554699
 51
370.872688
  0
ARC
  8
Layer0$C$L0
 10
7.104292
 20
6.915720
 40
0.143000
 50
118.644361
 51
169.334883
  0
LINE
  8
Layer0$C$L0
 10
6.432646
 20
9.036721
 11
6.432646
 21
9.599221
  0
CIRCLE
  8
Layer0$C$L0
 10
6.698646
 20
8.161721
 40
0.156500
  0
LINE
  8
Layer0$C$L0
 10
6.368646
 20
9.036721
 11
6.368646
 21
7.286721
  0
LINE
  8
Layer0$C$L0
 10
7.028646
 20
9.036721
 11
7.028646
 21
7.286721
  0
LINE
  8
Layer0$C$L0
 10
6.368646
 20
7.286721
 11
7.028646
 21
7.286721
  0
LINE
  8
Layer0$C$L0
 10
6.368646
 20
9.036721
 11
7.028646
 21
9.036721
  0
LINE
  8
Layer0$C$L0
 10
6.645613
 20
8.073332
 11
6.698646
 21
8.126365
  0
LINE
  8
Layer0$C$L0
 10
6.610258
 20
8.214754
 11
6.663291
 21
8.161721
  0
LINE
  8
Layer0$C$L0
 10
6.610258
 20
8.108688
 11
6.663291
 21
8.161721
  0
LINE
  8
Layer0$C$L0
 10
6.645613
 20
8.250109
 11
6.698646
 21
8.197076
  0
LINE
  8
Layer0$C$L0
 10
6.698646
 20
8.126365
 11
6.751679
 21
8.073332
  0
LINE
  8
Layer0$C$L0
 10
6.734002
 20
8.161720
 11
6.787035
 21
8.108688
  0
LINE
  8
Layer0$C$L0
 10
6.698646
 20
8.197076
 11
6.751679
 21
8.250109
  0
LINE
  8
Layer0$C$L0
 10
6.734002
 20
8.161720
 11
6.787035
 21
8.214754
  0
LINE
  8
Layer0$C$L0
 10
6.610258
 20
8.108688
 11
6.645613
 21
8.073332
  0
LINE
  8
Layer0$C$L0
 10
6.751679
 20
8.250109
 11
6.787035
 21
8.214754
  0
LINE
  8
Layer0$C$L0
 10
6.751679
 20
8.073332
 11
6.787035
 21
8.108688
  0
LINE
  8
Layer0$C$L0
 10
6.610258
 20
8.214754
 11
6.645613
 21
8.250109
  0
LINE
  8
Layer0$C$L0
 10
6.637754
 20
8.587252
 11
6.576862
 21
8.692721
  0
LINE
  8
Layer0$C$L0
 10
6.576862
 20
8.692721
 11
6.637754
 21
8.798190
  0
LINE
  8
Layer0$C$L0
 10
6.637754
 20
8.798190
 11
6.759539
 21
8.798190
  0
LINE
  8
Layer0$C$L0
 10
6.759539
 20
8.798190
 11
6.820431
 21
8.692721
  0
LINE
  8
Layer0$C$L0
 10
6.820431
 20
8.692721
 11
6.759539
 21
8.587252
  0
LINE
  8
Layer0$C$L0
 10
6.759539
 20
8.587252
 11
6.637754
 21
8.587252
  0
CIRCLE
  8
Layer0$C$L0
 10
6.698646
 20
8.692721
 40
0.183516
  0
CIRCLE
  8
Layer0$C$L0
 10
6.698646
 20
8.692721
 40
0.210938
  0
LINE
  8
Layer0$C$L0
 10
6.637754
 20
7.525252
 11
6.576862
 21
7.630721
  0
LINE
  8
Layer0$C$L0
 10
6.576862
 20
7.630721
 11
6.637754
 21
7.736189
  0
LINE
  8
Layer0$C$L0
 10
6.637754
 20
7.736189
 11
6.759539
 21
7.736189
  0
LINE
  8
Layer0$C$L0
 10
6.759539
 20
7.736189
 11
6.820431
 21
7.630721
  0
LINE
  8
Layer0$C$L0
 10
6.820431
 20
7.630721
 11
6.759539
 21
7.525252
  0
LINE
  8
Layer0$C$L0
 10
6.759539
 20
7.525252
 11
6.637754
 21
7.525252
  0
CIRCLE
  8
Layer0$C$L0
 10
6.698646
 20
7.630721
 40
0.183516
  0
CIRCLE
  8
Layer0$C$L0
 10
6.698646
 20
7.630721
 40
0.210938
  0
LINE
  8
Layer0$C$L0
 10
5.587006
 20
4.879220
 11
6.153944
 21
4.879220
  0
CIRCLE
  8
Layer0$C$L0
 10
5.878646
 20
7.630721
 40
0.210938
  0
CIRCLE
  8
Layer0$C$L0
 10
5.878646
 20
7.630721
 40
0.183516
  0
LINE
  8
Layer0$C$L0
 10
5.939538
 20
7.525252
 11
5.817754
 21
7.525252
  0
LINE
  8
Layer0$C$L0
 10
6.000432
 20
7.630721
 11
5.939538
 21
7.525252
  0
LINE
  8
Layer0$C$L0
 10
5.939538
 20
7.736189
 11
6.000432
 21
7.630721
  0
LINE
  8
Layer0$C$L0
 10
5.817754
 20
7.736189
 11
5.939538
 21
7.736189
  0
LINE
  8
Layer0$C$L0
 10
5.756861
 20
7.630721
 11
5.817754
 21
7.736189
  0
LINE
  8
Layer0$C$L0
 10
5.817754
 20
7.525252
 11
5.756861
 21
7.630721
  0
CIRCLE
  8
Layer0$C$L0
 10
5.878646
 20
8.692721
 40
0.210938
  0
CIRCLE
  8
Layer0$C$L0
 10
5.878646
 20
8.692721
 40
0.183516
  0
LINE
  8
Layer0$C$L0
 10
5.939538
 20
8.587252
 11
5.817754
 21
8.587252
  0
LINE
  8
Layer0$C$L0
 10
6.000432
 20
8.692721
 11
5.939538
 21
8.587252
  0
LINE
  8
Layer0$C$L0
 10
5.939538
 20
8.798190
 11
6.000432
 21
8.692721
  0
LINE
  8
Layer0$C$L0
 10
5.817754
 20
8.798190
 11
5.939538
 21
8.798190
  0
LINE
  8
Layer0$C$L0
 10
5.756861
 20
8.692721
 11
5.817754
 21
8.798190
  0
LINE
  8
Layer0$C$L0
 10
5.817754
 20
8.587252
 11
5.756861
 21
8.692721
  0
LINE
  8
Layer0$C$L0
 10
5.548646
 20
4.129220
 11
5.548646
 21
4.782220
  0
CIRCLE
  8
Layer0$C$L0
 10
5.469292
 20
6.915720
 40
5.554999E-02
  0
LINE
  8
Layer0$C$L0
 10
5.790258
 20
8.214754
 11
5.825613
 21
8.250109
  0
LINE
  8
Layer0$C$L0
 10
5.931679
 20
8.073332
 11
5.967034
 21
8.108688
  0
LINE
  8
Layer0$C$L0
 10
5.931679
 20
8.250109
 11
5.967035
 21
8.214754
  0
LINE
  8
Layer0$C$L0
 10
5.790258
 20
8.108688
 11
5.825613
 21
8.073332
  0
LINE
  8
Layer0$C$L0
 10
5.914002
 20
8.161720
 11
5.967035
 21
8.214754
  0
LINE
  8
Layer0$C$L0
 10
5.878646
 20
8.197076
 11
5.931679
 21
8.250109
  0
LINE
  8
Layer0$C$L0
 10
5.914002
 20
8.161720
 11
5.967034
 21
8.108688
  0
LINE
  8
Layer0$C$L0
 10
5.878646
 20
8.126365
 11
5.931679
 21
8.073332
  0
LINE
  8
Layer0$C$L0
 10
5.825613
 20
8.250109
 11
5.878646
 21
8.197076
  0
LINE
  8
Layer0$C$L0
 10
5.790258
 20
8.108688
 11
5.843291
 21
8.161721
  0
LINE
  8
Layer0$C$L0
 10
5.790258
 20
8.214754
 11
5.843291
 21
8.161721
  0
LINE
  8
Layer0$C$L0
 10
5.825613
 20
8.073332
 11
5.878646
 21
8.126365
  0
LINE
  8
Layer0$C$L0
 10
5.548646
 20
9.036721
 11
6.208646
 21
9.036721
  0
LINE
  8
Layer0$C$L0
 10
5.548646
 20
7.286721
 11
6.208646
 21
7.286721
  0
LINE
  8
Layer0$C$L0
 10
6.208646
 20
9.036721
 11
6.208646
 21
7.286721
  0
LINE
  8
Layer0$C$L0
 10
5.548646
 20
9.036721
 11
5.548646
 21
7.286721
  0
CIRCLE
  8
Layer0$C$L0
 10
5.878646
 20
8.161721
 40
0.156500
  0
ARC
  8
Layer0$C$L0
 10
5.557006
 20
4.812220
 40
3.000000E-02
 50
270.000001
 51
359.999983
  0
LINE
  8
Layer0$C$L0
 10
5.557006
 20
4.782220
 11
5.528690
 21
4.782220
  0
LINE
  8
Layer0$C$L0
 10
5.587006
 20
4.812220
 11
5.587006
 21
5.237220
  0
LINE
  8
Layer0$C$L0
 10
5.609849
 20
3.474221
 11
6.213496
 21
3.474221
  0
LINE
  8
Layer0$C$L0
 10
5.406495
 20
5.287220
 11
5.397944
 21
3.349221
  0
LINE
  8
Layer0$C$L0
 10
5.536163
 20
3.349221
 11
5.526495
 21
5.287220
  0
LINE
  8
Layer0$C$L0
 10
5.609849
 20
3.945220
 11
5.533189
 21
3.945220
  0
LINE
  8
Layer0$C$L0
 10
5.609849
 20
3.945220
 11
5.609849
 21
3.474221
  0
ARC
  8
Layer0$C$L0
 10
6.311644
 20
5.257220
 40
3.000000E-02
 50
0.285851
 51
90.000003
  0
ARC
  8
Layer0$C$L0
 10
6.251362
 20
5.257220
 40
3.000000E-02
 50
90.000003
 51
179.747220
  0
ARC
  8
Layer0$C$L0
 10
6.190944
 20
5.257220
 40
3.000000E-02
 50
90.000003
 51
178.939768
  0
ARC
  8
Layer0$C$L0
 10
6.372012
 20
5.257220
 40
3.000000E-02
 50
0.996987
 51
90.000003
  0
LINE
  8
Layer0$C$L0
 10
6.351163
 20
3.349221
 11
6.341644
 21
5.257370
  0
LINE
  8
Layer0$C$L0
 10
6.221363
 20
5.257352
 11
6.213496
 21
3.474221
  0
LINE
  8
Layer0$C$L0
 10
6.402008
 20
5.257742
 11
6.424825
 21
3.946554
  0
LINE
  8
Layer0$C$L0
 10
6.160950
 20
5.257776
 11
6.127942
 21
3.474221
  0
LINE
  8
Layer0$C$L0
 10
6.190944
 20
5.287220
 11
6.372012
 21
5.287220
  0
LINE
  8
Layer0$C$L0
 10
5.609849
 20
3.880221
 11
6.135456
 21
3.880221
  0
LINE
  8
Layer0$C$L0
 10
5.532272
 20
4.129220
 11
6.140064
 21
4.129220
  0
LINE
  8
Layer0$C$L0
 10
5.537646
 20
7.041326
 11
5.537646
 21
9.282115
  0
LINE
  8
Layer0$C$L0
 10
5.400742
 20
6.724221
 11
5.400742
 21
6.790222
  0
LINE
  8
Layer0$C$L0
 10
5.409293
 20
6.724221
 11
5.409293
 21
6.811798
  0
LINE
  8
Layer0$C$L0
 10
5.529293
 20
6.724221
 11
5.529293
 21
6.811798
  0
ARC
  8
Layer0$C$L0
 10
5.469292
 20
6.915720
 40
0.143000
 50
10.872696
 51
61.445304
  0
ARC
  8
Layer0$C$L0
 10
5.469292
 20
6.915720
 40
0.120000
 50
299.999967
 51
420.000025
  0
ARC
  8
Layer0$C$L0
 10
5.469292
 20
6.915720
 40
0.120000
 50
119.999990
 51
240.000034
  0
ARC
  8
Layer0$C$L0
 10
5.469292
 20
6.915720
 40
0.143000
 50
169.334938
 51
241.355635
  0
ARC
  8
Layer0$C$L0
 10
5.469292
 20
9.407721
 40
0.143000
 50
118.644361
 51
241.355663
  0
ARC
  8
Layer0$C$L0
 10
5.469292
 20
9.407721
 40
0.120000
 50
119.999990
 51
240.000034
  0
LINE
  8
Layer0$C$L0
 10
5.400742
 20
7.041219
 11
5.400742
 21
9.282222
  0
LINE
  8
Layer0$C$L0
 10
5.409293
 20
7.019643
 11
5.409293
 21
9.303798
  0
ARC
  8
Layer0$C$L0
 10
5.469292
 20
9.407721
 40
0.143000
 50
298.554699
 51
420.843663
  0
ARC
  8
Layer0$C$L0
 10
5.469292
 20
9.407721
 40
0.120000
 50
299.999967
 51
420.000025
  0
LINE
  8
Layer0$C$L0
 10
5.529293
 20
7.019643
 11
5.529293
 21
9.303798
  0
LINE
  8
Layer0$C$L0
 10
5.409293
 20
9.511644
 11
5.409293
 21
9.599221
  0
LINE
  8
Layer0$C$L0
 10
5.529293
 20
9.511644
 11
5.529293
 21
9.599221
  0
LINE
  8
Layer0$C$L0
 10
5.400742
 20
9.533220
 11
5.400742
 21
9.599221
  0
CIRCLE
  8
Layer0$C$L0
 10
5.469292
 20
9.407721
 40
5.554999E-02
  0
LINE
  8
Layer0$C$L0
 10
5.538961
 20
9.532602
 11
5.538961
 21
9.599221
  0
LINE
  8
Layer0$C$L0
 10
5.537646
 20
6.724221
 11
5.537646
 21
6.790115
  0
ARC
  8
Layer0$C$L0
 10
5.469292
 20
6.915720
 40
0.143000
 50
298.554699
 51
370.872688
  0
ARC
  8
Layer0$C$L0
 10
5.469292
 20
6.915720
 40
0.143000
 50
118.644361
 51
169.334883
  0
LINE
  8
Layer0$C$L0
 10
5.612647
 20
9.036721
 11
5.612647
 21
9.599221
  0
ARC
  8
Layer0$C$L0
 10
6.284293
 20
6.915720
 40
0.143000
 50
118.644361
 51
169.334883
  0
ARC
  8
Layer0$C$L0
 10
6.284293
 20
6.915720
 40
0.143000
 50
169.334938
 51
241.355635
  0
ARC
  8
Layer0$C$L0
 10
6.284293
 20
6.915720
 40
0.143000
 50
298.554699
 51
370.872688
  0
CIRCLE
  8
Layer0$C$L0
 10
5.878646
 20
7.037220
 40
0.101000
  0
CIRCLE
  8
Layer0$C$L0
 10
5.878646
 20
9.287221
 40
0.101000
  0
LINE
  8
Layer0$C$L0
 10
6.352646
 20
6.724221
 11
6.352646
 21
6.790115
  0
LINE
  8
Layer0$C$L0
 10
6.352646
 20
7.041326
 11
6.352646
 21
9.282115
  0
LINE
  8
Layer0$C$L0
 10
5.612647
 20
6.724221
 11
5.612647
 21
7.286721
  0
LINE
  8
Layer0$C$L0
 10
6.353961
 20
9.532602
 11
6.353961
 21
9.599221
  0
CIRCLE
  8
Layer0$C$L0
 10
6.284293
 20
6.915720
 40
5.554999E-02
  0
CIRCLE
  8
Layer0$C$L0
 10
6.284293
 20
9.407721
 40
5.554999E-02
  0
LINE
  8
Layer0$C$L0
 10
6.215743
 20
9.533220
 11
6.215743
 21
9.599221
  0
LINE
  8
Layer0$C$L0
 10
6.344292
 20
9.511644
 11
6.344292
 21
9.599221
  0
LINE
  8
Layer0$C$L0
 10
6.224292
 20
9.511644
 11
6.224292
 21
9.599221
  0
LINE
  8
Layer0$C$L0
 10
6.344292
 20
7.019643
 11
6.344292
 21
9.303798
  0
ARC
  8
Layer0$C$L0
 10
6.284293
 20
9.407721
 40
0.120000
 50
299.999967
 51
420.000025
  0
ARC
  8
Layer0$C$L0
 10
6.284293
 20
9.407721
 40
0.143000
 50
298.554699
 51
420.843663
  0
LINE
  8
Layer0$C$L0
 10
6.224292
 20
7.019643
 11
6.224292
 21
9.303798
  0
LINE
  8
Layer0$C$L0
 10
6.215743
 20
7.041219
 11
6.215743
 21
9.282222
  0
ARC
  8
Layer0$C$L0
 10
6.284293
 20
9.407721
 40
0.120000
 50
119.999990
 51
240.000034
  0
ARC
  8
Layer0$C$L0
 10
6.284293
 20
9.407721
 40
0.143000
 50
118.644361
 51
241.355663
  0
ARC
  8
Layer0$C$L0
 10
6.284293
 20
6.915720
 40
0.120000
 50
119.999990
 51
240.000034
  0
ARC
  8
Layer0$C$L0
 10
6.284293
 20
6.915720
 40
0.120000
 50
299.999967
 51
420.000025
  0
ARC
  8
Layer0$C$L0
 10
6.284293
 20
6.915720
 40
0.143000
 50
10.872696
 51
61.445304
  0
LINE
  8
Layer0$C$L0
 10
6.344292
 20
6.724221
 11
6.344292
 21
6.811798
  0
LINE
  8
Layer0$C$L0
 10
6.224292
 20
6.724221
 11
6.224292
 21
6.811798
  0
LINE
  8
Layer0$C$L0
 10
6.215743
 20
6.724221
 11
6.215743
 21
6.790222
  0
LINE
  8
Layer0$C$L0
 10
5.878646
 20
7.228860
 11
5.878646
 21
6.800847
  0
LINE
  8
Layer0$C$L0
 10
5.345950
 20
4.812220
 11
5.345950
 21
5.237220
  0
LINE
  8
Layer0$C$L0
 10
5.375949
 20
4.782220
 11
5.404267
 21
4.782220
  0
ARC
  8
Layer0$C$L0
 10
5.375949
 20
4.812220
 40
3.000000E-02
 50
180.000019
 51
270.000001
  0
LINE
  8
Layer0$C$L0
 10
5.878646
 20
9.474459
 11
5.878646
 21
9.105078
  0
LINE
  8
Layer0$C$L0
 10
5.682289
 20
9.287221
 11
6.039942
 21
9.287221
  0
LINE
  8
Layer0$C$L0
 10
5.694015
 20
7.037220
 11
6.069258
 21
7.037220
  0
TEXT
  8
Layer0$C$L0
 10
10.107347
 20
6.223889
 40
0.125000
  1
63152
 41
0.952547
 72
     5
 11
10.583620
 21
6.223889
  0
TEXT
  8
Layer0$C$L0
 10
10.101132
 20
6.898801
 40
0.125000
  1
62152
 41
0.952547
 72
     5
 11
10.577406
 21
6.898801
  0
TEXT
  8
Layer0$C$L0
 10
13.636404
 20
6.126656
 40
0.125000
  1
   #8-#14     50
 41
0.764405
 72
     5
 11
15.069664
 21
6.126656
  0
TEXT
  8
Layer0$C$L0
 10
13.636404
 20
6.336656
 40
0.125000
  1
   #2/0-#6   120
 41
0.764405
 72
     5
 11
15.069664
 21
6.336656
  0
TEXT
  8
Layer0$C$L0
 10
13.636404
 20
6.546656
 40
0.125000
  1
   #10-#14    35
 41
0.764405
 72
     5
 11
15.069664
 21
6.546656
  0
TEXT
  8
Layer0$C$L0
 10
13.636404
 20
6.756656
 40
0.125000
  1
   #8         40
 41
0.764405
 72
     5
 11
15.069664
 21
6.756656
  0
TEXT
  8
Layer0$C$L0
 10
13.636404
 20
6.966656
 40
0.125000
  1
   #4-#6      45
 41
0.764405
 72
     5
 11
15.069664
 21
6.966656
  0
TEXT
  8
Layer0$C$L0
 10
13.636404
 20
7.176656
 40
0.125000
  1
   #2/0-#3    50
 41
0.764405
 72
     5
 11
15.069664
 21
7.176656
  0
TEXT
  8
Layer0$C$L0
 10
11.398655
 20
6.126656
 40
0.125000
  1
   #8-#14     50
 41
0.764405
 72
     5
 11
12.831914
 21
6.126656
  0
TEXT
  8
Layer0$C$L0
 10
11.398655
 20
6.336656
 40
0.125000
  1
   #2/0-#6   120
 41
0.764405
 72
     5
 11
12.831914
 21
6.336656
  0
TEXT
  8
Layer0$C$L0
 10
11.398655
 20
6.546656
 40
0.125000
  1
   #10-#14    35
 41
0.764405
 72
     5
 11
12.831914
 21
6.546656
  0
TEXT
  8
Layer0$C$L0
 10
11.398655
 20
6.756656
 40
0.125000
  1
   #8         40
 41
0.764405
 72
     5
 11
12.831914
 21
6.756656
  0
TEXT
  8
Layer0$C$L0
 10
11.398655
 20
6.966656
 40
0.125000
  1
   #4-#6      45
 41
0.764405
 72
     5
 11
12.831914
 21
6.966656
  0
TEXT
  8
Layer0$C$L0
 10
11.398655
 20
7.176656
 40
0.125000
  1
   #2/0-#3    50
 41
0.764405
 72
     5
 11
12.831914
 21
7.176656
  0
TEXT
  8
Layer0$C$L0
 10
10.431182
 20
6.237141
 40
0.125000
  1
   #2/0-#14
 41
0.823770
 72
     5
 11
11.460895
 21
6.237141
  0
TEXT
  8
Layer0$C$L0
 10
10.562716
 20
6.894820
 40
0.125000
  1
  #2/0-#14
 41
0.841389
 72
     5
 11
11.509279
 21
6.894820
  0
TEXT
  8
Layer0$C$L0
 10
12.708011
 20
6.275855
 40
0.125000
  1
   #2/0-#14
 41
0.823770
 72
     5
 11
13.737723
 21
6.275855
  0
TEXT
  8
Layer0$C$L0
 10
12.789834
 20
6.915559
 40
0.125000
  1
  #2/0-#14
 41
0.826664
 72
     5
 11
13.719831
 21
6.915559
  0
TEXT
  8
Layer0$C$L0
 10
15.212238
 20
6.891306
 40
0.125000
  1
E73571
 41
1.134958
 72
     5
 11
15.921587
 21
6.891306
  0
TEXT
  8
Layer0$C$L0
 10
15.209359
 20
7.384442
 40
0.125000
  1
FILE NO.
 41
0.835161
 72
     5
 11
15.940125
 21
7.384442
  0
TEXT
  8
Layer0$C$L0
 10
16.029945
 20
7.387377
 40
0.125000
  1
GUIDE NO.
 41
0.830341
 72
     5
 11
16.860286
 21
7.387377
  0
TEXT
  8
Layer0$C$L0
 10
16.899300
 20
7.392845
 40
0.125000
  1
REPORT NO.
 41
0.826664
 72
     5
 11
17.829296
 21
7.392845
  0
LINE
  8
Layer0$C$L0
 10
10.045794
 20
6.084156
 11
10.045794
 21
7.989156
  0
LINE
  8
Layer0$C$L0
 10
10.649544
 20
6.084156
 11
10.649544
 21
7.989156
  0
LINE
  8
Layer0$C$L0
 10
10.045794
 20
7.989156
 11
17.834546
 21
7.989156
  0
LINE
  8
Layer0$C$L0
 10
10.649544
 20
7.779156
 11
15.149545
 21
7.779156
  0
LINE
  8
Layer0$C$L0
 10
10.045794
 20
7.344156
 11
17.834546
 21
7.344156
  0
LINE
  8
Layer0$C$L0
 10
13.814545
 20
7.134156
 11
15.149545
 21
7.134156
  0
LINE
  8
Layer0$C$L0
 10
13.814545
 20
6.924156
 11
15.149545
 21
6.924156
  0
LINE
  8
Layer0$C$L0
 10
13.814545
 20
6.714156
 11
15.149545
 21
6.714156
  0
LINE
  8
Layer0$C$L0
 10
10.045794
 20
6.504156
 11
17.834546
 21
6.504156
  0
LINE
  8
Layer0$C$L0
 10
13.814545
 20
6.294156
 11
15.149545
 21
6.294156
  0
LINE
  8
Layer0$C$L0
 10
15.967046
 20
6.084156
 11
15.967046
 21
7.554156
  0
LINE
  8
Layer0$C$L0
 10
16.859547
 20
6.084156
 11
16.859547
 21
7.989155
  0
LINE
  8
Layer0$C$L0
 10
10.045794
 20
6.084156
 11
17.834546
 21
6.084156
  0
LINE
  8
Layer0$C$L0
 10
15.149545
 20
6.084156
 11
15.149545
 21
7.989156
  0
LINE
  8
Layer0$C$L0
 10
11.587044
 20
6.084156
 11
11.587044
 21
7.554156
  0
LINE
  8
Layer0$C$L0
 10
11.587044
 20
6.294156
 11
12.899545
 21
6.294156
  0
LINE
  8
Layer0$C$L0
 10
11.587044
 20
6.714156
 11
12.899545
 21
6.714156
  0
LINE
  8
Layer0$C$L0
 10
11.587044
 20
6.924156
 11
12.899545
 21
6.924156
  0
LINE
  8
Layer0$C$L0
 10
11.587044
 20
7.134156
 11
12.899545
 21
7.134156
  0
LINE
  8
Layer0$C$L0
 10
13.814545
 20
6.084156
 11
13.814545
 21
7.554156
  0
LINE
  8
Layer0$C$L0
 10
12.899545
 20
6.084156
 11
12.899545
 21
7.779156
  0
LINE
  8
Layer0$C$L0
 10
10.649544
 20
7.554156
 11
17.834546
 21
7.554156
  0
LINE
  8
Layer0$C$L0
 10
17.834546
 20
6.084156
 11
17.834546
 21
7.989156
  0
TEXT
  8
Layer0$C$L0
 10
10.178907
 20
7.604404
 40
0.125000
  1
P/N
 72
     5
 11
10.520483
 21
7.604404
  0
TEXT
  8
Layer0$C$L0
 10
11.530715
 20
7.832756
 40
0.125000
  1
WIRE RANGE & TORQUE (IN-LBS)
 72
     5
 11
14.997290
 21
7.832756
  0
TEXT
  8
Layer0$C$L0
 10
11.381543
 20
7.606110
 40
0.125000
  1
PRIMARY
 72
     5
 11
12.223118
 21
7.606110
  0
TEXT
  8
Layer0$C$L0
 10
10.823688
 20
7.392266
 40
0.125000
  1
RANGE
 72
     5
 11
11.415263
 21
7.392266
  0
TEXT
  8
Layer0$C$L0
 10
11.892909
 20
7.392266
 40
0.125000
  1
TORQUE
 72
     5
 11
12.609484
 21
7.392266
  0
TEXT
  8
Layer0$C$L0
 10
13.464199
 20
7.615408
 40
0.125000
  1
SECONDARY
 72
     5
 11
14.555774
 21
7.615408
  0
TEXT
  8
Layer0$C$L0
 10
13.064404
 20
7.392266
 40
0.125000
  1
RANGE
 72
     5
 11
13.655980
 21
7.392266
  0
TEXT
  8
Layer0$C$L0
 10
14.096435
 20
7.392266
 40
0.125000
  1
TORQUE
 72
     5
 11
14.813010
 21
7.392266
  0
TEXT
  8
Layer0$C$L0
 10
15.224156
 20
6.263598
 40
0.125000
  1
E73571
 72
     5
 11
15.940732
 21
6.263598
  0
TEXT
  8
Layer0$C$L0
 10
16.105242
 20
6.899859
 40
0.125000
  1
XCFR2
 72
     5
 11
16.696817
 21
6.899859
  0
TEXT
  8
Layer0$C$L0
 10
16.132654
 20
6.263598
 40
0.125000
  1
XCFR2
 72
     5
 11
16.724230
 21
6.263598
  0
TEXT
  8
Layer0$C$L0
 10
16.955679
 20
6.909102
 40
0.125000
  1
LR69363
 72
     5
 11
17.797254
 21
6.909102
  0
TEXT
  8
Layer0$C$L0
 10
16.929842
 20
6.263598
 40
0.125000
  1
LR69363
 72
     5
 11
17.771417
 21
6.263598
  0
TEXT
  8
Layer0$C$L0
 10
13.667144
 20
8.379725
 40
0.125000
  1
TABLE I
 72
     5
 11
14.508719
 21
8.379725
  0
TEXT
  8
Layer0$C$L0
 10
17.201824
 20
7.717681
 40
0.125000
  1
CSA
 72
     5
 11
17.543400
 21
7.717681
  0
TEXT
  8
Layer0$C$L0
 10
15.890332
 20
7.723174
 40
0.125000
  1
UL
 72
     5
 11
16.106908
 21
7.723174
  0
ENDSEC
  0
EOF
